Поиск Результатов поиска: 500

  • Сериалы для iPod, iPhone, iPad > Зачарованные 2 сезон / Charmed (Aaron Spelling) [1998, фэнтези, комедия, мелодрама, драма, детектив, DVDRip]
  • 22-Окт-2018 18:08

    Ranku

    Зачарованные 2 сезон / Charmed 2 Season
    Год выпуска: 1998 - 2006 (8 сезонов)
    Страна: США
    Жанр: фэнтези, комедия, мелодрама, драма, детектив
    Продолжительность: 42 минуты каждая серия
    Перевод: Профессиональный (многоголосый, закадровый)
    Русские субтитры: нет
    Режиссер: Aaron Spelling
    В ролях: Шеннон Доэрти /Shannen Doherty/, Холли Мари Комбс /Holly Marie Combs/, Алисса Милано /Alyssa Milano/, Роуз МакГоун /Rose McGowan/, Тед Кинг /Ted King/, Дориан Грегори /Dorian Gregory/, Брайан Краузе /Brian Krause/, Грег Вон /Greg Vaughan/, Керис Пейдж Брайант /Karis Paige Bryant/, Джулиан МакМахон /Julian McMahon/
    Описание: Три сестры, три создания нежных живут в Сан-Франциско, в доме своей почившей бабушки. Они - прирожденные ведьмы. Все предки сестер Холливелл по женской линии были ворожеями. Судьба Прю, Пайпер и Фиби предопределена. Сестры должны принять ведьминский сан и навсегда отказаться от походов в церковь.
    Девушки находят на чердаке Книгу таинств и произносят над ее страницами заклинание. Волшебство начинается! Как подействовала магическая сила заклинания? Из чаровниц, способных вскружить голову любому мужчине, сестры превращаются в настоящих чародеек!
    Список серий:
    1 Witch Trial
    2 Morality Bites
    3 The Painted World
    4 The Devil's Music
    5 She's A Man Baby A Man
    6 That Old Black Magic
    7 They're Everywhere
    8 P3 H2O
    9 Ms.Hellfire
    10 Heartbreak City
    11 Reckless Abandon
    12 Awakened
    13 Animal Pragmatism
    14 Pardon My Past
    15 Give Me A Sign
    16 Murphy's Luck
    17 How To Make A Quilt Out Of Americans
    18 Chick Flick
    19 Ex Libris
    20 Astral Monkey
    21 Apocalypse Not
    22 Be Careful What You Witch For
    Качество: DVDRip
    Формат: MP4
    Видео кодек: H.264
    Аудио кодек: AAC
    Видео: AVC; 480x360 (4:3); 695 Kbps; 29,970 fps; 0,134 bpp
    Аудио: AAC LC; 156 Kbps; VBR; 2 ch; 16 bit
    СЕЗОН 1
    СЕЗОН 3
    СЕЗОН 4
    СЕЗОН 5
    СЕЗОН 6
    СЕЗОН 7
    СЕЗОН 8

    Тех. данные

    Общая информация
    00:41:22
    Видео
    Format: AVC
    Duration: 00:41:22
    Width: 480
    Height: 360
    Bitrate: 696
    BitrateMode: VBR
    FrameRate: 25
    FrameRateMode: CFR
    BitsPerPixel: 0,161
    DisplayAspectRatio: 4:3
    ScanType: Progressive
    StreamSize: 206,07 MB
    Colorimetry: 4:2:0
    FrameCount: 62067
    Аудио
    Format: AAC LC
    Duration: 00:41:22
    Bitrate: 159
    BitrateMode: VBR
    Channels: 2
    ChannelPositions: L R
    SamplingRate: 44
    SamplingCount: 109480940
    Resolution: 16
    StreamSize: 47,35 MB

    Скриншоты







  • Сериалы для iPod, iPhone, iPad > Части тела / Nip Tuck - Сезон 3 [2005, драма, DVDRip]
  • 10-Окт-2018 15:42

    Ranku

    Части тела / Nip Tuck - Сезон 3- Название: "Части тела"
    Оригинальное название: “Nip Tuck”
    Год выпуска: 2005
    Жанр: Драма
    Перевод: Профессиональный (полное дублирование) от канала СТС
    Размер: ~200 мегабайт на серию-Режиссер: Грег Яйтанес, Элоди Кин, Райан Мэрфи, Крэйг Зиск и др.
    В ролях: Дилан Уолш, Джулиан МакМэйхон, Джон Хенсли, Валери Круз, Рома Маффиа, Бруно Кампос, Джоэли Ричардсон, Келли Карлсон, Джессалин Гилсиг-Описание: Шон МакНамара и Кристиан Трой – два талантливых пластических хирурга, которые делают красивых женщин безупречными в собственной частной клинике, расположенной в Майами. Операции стоят невероятно дорого, и клиентки бывают готовы на всё, чтобы задержать ускользающую красоту или её приумножить.
    Шон и Кристиан не только партнёры в одном бизнесе, но и друзья. Однако между ними часто возникают разногласия из-за разного отношения к жизни, к своему делу и к женщинам.
    Шон, более серьезный, старается полностью погрузиться в работу, чтобы отвлечься от проблем с женой и сыном-тинэйджером. Клятва Гиппократа не пустые слова для Шона, он работает самоотверженно, даже готов делать бесплатные операции жертвам пожаров и действительно нуждающимся. Эти благородные порывы Шона не находят отклика в сердце Кристиана, работающего исключительно ради денег и возможности завести интрижку с очередной пациенткой. Доллары, дамы и вино – вот что нужно Кристиану, и он пойдёт на всё, чтобы заполучить желаемое: на ложь, обман, измену, шантаж и даже... на убийство! Судьба готовит двум друзьям множество сюрпризов, встреч, неожиданных поворотов и открытий!
    Симпатичные врачи, сексапильные пациентки, красивая любовь на фоне дорогих интерьеров штата Флорида.-IMDB Rating: 8.5/10 (13,783 votes)-Качество: DVDRip
    Формат: MP4
    Видео: 480x264; 24fps; h264; 512kbps
    Аудио: 48kHz; stereo; AAC; 128kbps-

    Содержание сезона

    Серия 1: Мама Бун / Momma Boone
    Серия 2: КиКи / KiKi
    Серия 3: Дерек, Алекс и Гэри / Derek, Alex, and Gary
    Серия 4: Риа Рейнольдс / Rhea Reynolds
    Серия 5: Грэнвиль Трэпп / Granville Trapp
    Серия 6: Франкилора / Frankenlaura
    Серия 7: Бен Уайт / Ben White
    Серия 8: Томми Болтон / Tommy Bolton
    Серия 9: Ханна Тедеско / Hannah Tedesco
    Серия 10: Мэдисон Берг / Madison Berg
    Серия 11: Эбби Мэйс / Abby Mays
    Серия 12: Сэл Перри / Sal Perri
    Серия 13: Джой Крингл / Joy Kringle
    Серия 14: Черри Пэк / Cherry Peck
    Серия 15: Квентин Коста / Quentin Costa

    Скриншоты

    Сэмпл

    Сэмпл

    Тех. данные

    Video
    Count : 119
    Count of stream of this kind : 1
    Kind of stream : Video
    StreamKindID : 0
    ID : 1
    Format : AVC
    Format/Info : Advanced Video Codec
    Format/Url : http://developers.videolan.org/x264.html
    Format profile : Baseline@L3.0
    Format settings : 6 Ref Frames
    Format settings, CABAC : No
    Format settings, ReFrames : 6
    Codec ID : avc1
    Codec ID/Url : http://www.apple.com/quicktime/download/standalone.html
    Codec : AVC
    Codec : AVC
    Codec/Family : AVC
    Codec/Info : Advanced Video Codec
    Codec/Url : http://developers.videolan.org/x264.html
    Codec/CC : avc1
    Codec profile : Baseline@L3.0
    Codec settings : 6 Ref Frames
    Codec settings, CABAC : No
    Codec_Settings_RefFrames : 6
    Duration : 2619040
    Duration : 43mn 39s
    Duration : 43mn 39s 40ms
    Duration : 43mn 39s
    Duration : 00:43:39.040
    Bit rate mode : VBR
    Bit rate : 511880
    Bit rate : 512 Kbps
    Maximum bit rate : 1656632
    Maximum bit rate : 1657 Kbps
    Width : 480
    Width : 480 pixels
    Height : 264
    Height : 264 pixels
    Pixel Aspect Ratio : 1.000
    Display aspect ratio : 1.818
    Display aspect ratio : 16/9
    Frame rate mode : CFR
    Frame rate : 25.000
    Frame rate : 25.000 fps
    FrameCount : 65476
    Colorimetry : 4:2:0
    Scan type : Progressive
    Scan type : Progressive
    Interlacement : PPF
    Interlacement : Progressive
    Bits/(Pixel*Frame) : 0.162
    Stream size : 167580736
    Stream size : 160 MiB
    Stream size : 160 MiB
    Stream size : 160 MiB
    Stream size : 160 MiB
    Stream size : 159.8 MiB
    Audio
    Count : 102
    Count of stream of this kind : 1
    Kind of stream : Audio
    StreamKindID : 0
    ID : 2
    Format : AAC
    Format/Info : Advanced Audio Codec
    Format version : Version 4
    Format profile : LC
    Format settings, SBR : No
    Codec : A_AAC/MPEG4/LC
    Codec : AAC LC
    Codec/Family : AAC
    Codec/Info : AAC Low Complexity
    Codec/CC : 40
    Duration : 2619114
    Duration : 43mn 39s
    Duration : 43mn 39s 114ms
    Duration : 43mn 39s
    Duration : 00:43:39.114
    Bit rate mode : VBR
    Bit rate : 129008
    Bit rate : 129 Kbps
    Maximum bit rate : 149520
    Maximum bit rate : 150 Kbps
    Channel(s) : 2
    Channel(s) : 2 channels
    Channel positions : L R
    Sampling rate : 48000
    Sampling rate : 48.0 KHz
    SamplingCount : 125717472
    Resolution : 16
    Resolution : 16 bits
    Stream size : 42237928
    Stream size : 40.3 MiB
    Stream size : 40 MiB
    Stream size : 40 MiB
    Stream size : 40.3 MiB
    Stream size : 40.28 MiB
    Как закачать отдельный файл из торрента или докачать ранее пропущенные файлы торрента!-Скачать Части тела / Nip Tuck - Сезон 1
    Скачать Части тела / Nip Tuck - Сезон 2
    Скачать Части тела / Nip Tuck - Сезон 4
    Скачать Части тела / Nip Tuck - Сезон 5
    Скачать Части тела / Nip Tuck - Сезон 6
    Скачать Части тела / Nip Tuck - Сезон 7-
  • Сериалы для iPod, iPhone, iPad > Зачарованные 3 сезон / Charmed (Aaron Spelling) [1998, фэнтези, комедия, мелодрама, драма, детектив, DVDRip]
  • 10-Окт-2018 14:41

    Ranku

    Зачарованные 3 сезон / Charmed 3 Season
    Год выпуска: 1998 - 2006 (8 сезонов)
    Страна: США
    Жанр: фэнтези, комедия, мелодрама, драма, детектив
    Продолжительность: 42 минуты каждая серия
    Перевод: Профессиональный (многоголосый, закадровый)
    Русские субтитры: нет
    Режиссер: Aaron Spelling
    В ролях: Шеннон Доэрти /Shannen Doherty/, Холли Мари Комбс /Holly Marie Combs/, Алисса Милано /Alyssa Milano/, Роуз МакГоун /Rose McGowan/, Тед Кинг /Ted King/, Дориан Грегори /Dorian Gregory/, Брайан Краузе /Brian Krause/, Грег Вон /Greg Vaughan/, Керис Пейдж Брайант /Karis Paige Bryant/, Джулиан МакМахон /Julian McMahon/
    Описание: Три сестры, три создания нежных живут в Сан-Франциско, в доме своей почившей бабушки. Они - прирожденные ведьмы. Все предки сестер Холливелл по женской линии были ворожеями. Судьба Прю, Пайпер и Фиби предопределена. Сестры должны принять ведьминский сан и навсегда отказаться от походов в церковь.
    Девушки находят на чердаке Книгу таинств и произносят над ее страницами заклинание. Волшебство начинается! Как подействовала магическая сила заклинания? Из чаровниц, способных вскружить голову любому мужчине, сестры превращаются в настоящих чародеек!
    Список серий:
    1 The Honeymoon's Over
    2 Magic Hour
    3 Once Upon A Time
    4 All Halliwell's Eve
    5 Sight Unseen
    6 Primrose Empath
    7 Power Outage
    8 Sleuthing With The Enemy
    9 Coyote Piper
    10 We All Scream For Ice Cream
    11 Blinded By The Whitelighter
    12 Wrestling With Demons
    13 Bride And Gloom
    14 The Good,The Bad And The Cursed
    15 Just Harried
    16 Death Takes A Halliwell
    17 Pre-Witched
    18 Sin Francisco
    19 The Demon Who Came In From The Cold
    20 Exit Strategy
    21 Look Who's Barking
    22 All Hell Breaks Loose
    Качество: DVDRip
    Формат: MP4
    Видео кодек: H.264
    Аудио кодек: AAC
    Видео: AVC; 480x360 (4:3); 695 Kbps; 29,970 fps; 0,134 bpp
    Аудио: AAC LC; 156 Kbps; VBR; 2 ch; 16 bit
    СЕЗОН 1
    СЕЗОН 2
    СЕЗОН 4
    СЕЗОН 5
    СЕЗОН 6
    СЕЗОН 7
    СЕЗОН 8

    Тех. данные

    Общая информация
    00:42:35
    Видео
    Format: AVC
    Duration: 00:42:35
    Width: 480
    Height: 360
    Bitrate: 695
    BitrateMode: VBR
    FrameRate: 25
    FrameRateMode: CFR
    BitsPerPixel: 0,161
    DisplayAspectRatio: 4:3
    ScanType: Progressive
    StreamSize: 211,93 MB
    Colorimetry: 4:2:0
    FrameCount: 63877
    Аудио
    Format: AAC LC
    Duration: 00:42:35
    Bitrate: 160
    BitrateMode: VBR
    Channels: 2
    ChannelPositions: L R
    SamplingRate: 44
    SamplingCount: 112677881
    Resolution: 16
    StreamSize: 48,73 MB

    Скриншоты








  • Сериалы для iPod, iPhone, iPad > Зачарованные 1 сезон / Charmed (Aaron Spelling) [1998, фэнтези, комедия, мелодрама, драма, детектив, DVDRip]
  • 25-Сен-2018 04:09

    Ranku

    Зачарованные 1 сезон / Charmed 1 Season
    Год выпуска: 1998 - 2006 (8 сезонов)
    Страна: США
    Жанр: фэнтези, комедия, мелодрама, драма, детектив
    Продолжительность: 42 минуты каждая серия
    Перевод: Профессиональный (многоголосый, закадровый)
    Русские субтитры: нет
    Режиссер: Aaron Spelling
    В ролях: Шеннон Доэрти /Shannen Doherty/, Холли Мари Комбс /Holly Marie Combs/, Алисса Милано /Alyssa Milano/, Роуз МакГоун /Rose McGowan/, Тед Кинг /Ted King/, Дориан Грегори /Dorian Gregory/, Брайан Краузе /Brian Krause/, Грег Вон /Greg Vaughan/, Керис Пейдж Брайант /Karis Paige Bryant/, Джулиан МакМахон /Julian McMahon/
    Описание: Три сестры, три создания нежных живут в Сан-Франциско, в доме своей почившей бабушки. Они - прирожденные ведьмы. Все предки сестер Холливелл по женской линии были ворожеями. Судьба Прю, Пайпер и Фиби предопределена. Сестры должны принять ведьминский сан и навсегда отказаться от походов в церковь.
    Девушки находят на чердаке Книгу таинств и произносят над ее страницами заклинание. Волшебство начинается! Как подействовала магическая сила заклинания? Из чаровниц, способных вскружить голову любому мужчине, сестры превращаются в настоящих чародеек!
    Список серий:
    1 Something Wicca This Way Comes
    2 I've Got You Under My Skin
    3 Thank You For Not Morphing
    4 Dead Man Dating
    5 Dream Sorcerer
    6 The Wedding From Hell
    7 The Fourth Sister
    8 The Truth Is Out There And It Hurts
    9 The Witch Is Back
    10 Wicca Envy
    11 Feats Of Clay
    12 The Wendigo
    13 From Fear To Eternity
    14 Secrets And Guys
    15 Is There A Woogy In The House
    16 Which Prue Is It Anyway
    17 That '70s Episode
    18 When Bad Warlocks Turn Good
    19 Out Of Sight
    20 The Power Of Two
    21 Love Hurts
    22 Deja Vu All Over Again
    Качество: DVDRip
    Формат: MP4
    Видео кодек: H.264
    Аудио кодек: AAC
    Видео: AVC; 480x360 (4:3); 695 Kbps; 29,970 fps; 0,134 bpp
    Аудио: AAC LC; 156 Kbps; VBR; 2 ch; 16 bit
    СЕЗОН 2
    СЕЗОН 3
    СЕЗОН 4
    СЕЗОН 5
    СЕЗОН 6
    СЕЗОН 7
    СЕЗОН 8

    Тех. данные

    Общая информация
    00:43:29
    Видео
    Format: AVC
    Duration: 00:43:29
    Width: 480
    Height: 360
    Bitrate: 695
    BitrateMode: VBR
    FrameRate: 29,970
    FrameRateMode: CFR
    BitsPerPixel: 0,134
    DisplayAspectRatio: 4:3
    ScanType: Progressive
    StreamSize: 216,33 MB
    Colorimetry: 4:2:0
    FrameCount: 78202
    Аудио
    Format: AAC LC
    Duration: 00:43:29
    Bitrate: 156
    BitrateMode: VBR
    Channels: 2
    ChannelPositions: L R
    SamplingRate: 44
    SamplingCount: 115063780
    Resolution: 16
    StreamSize: 48,58 MB

    Скриншоты







  • Сериалы для iPod, iPhone, iPad > [iPhone] Зачарованные 5 сезон / Charmed (Aaron Spelling) [1998, фэнтези, комедия, мелодрама, драма, детектив, DVDRip, 480x360]
  • 16-Сен-2018 02:59

    Ranku

    Зачарованные 5 сезон / Charmed 5 Season
    Год выпуска: 1998 - 2006 (8 сезонов)
    Страна: США
    Жанр: фэнтези, комедия, мелодрама, драма, детектив
    Продолжительность: 42 минуты каждая серия
    Перевод: Профессиональный (многоголосый, закадровый)
    Русские субтитры: нет
    Режиссер: Aaron Spelling
    В ролях: Шеннон Доэрти /Shannen Doherty/, Холли Мари Комбс /Holly Marie Combs/, Алисса Милано /Alyssa Milano/, Роуз МакГоун /Rose McGowan/, Тед Кинг /Ted King/, Дориан Грегори /Dorian Gregory/, Брайан Краузе /Brian Krause/, Грег Вон /Greg Vaughan/, Керис Пейдж Брайант /Karis Paige Bryant/, Джулиан МакМахон /Julian McMahon/
    Описание: Три сестры, три создания нежных живут в Сан-Франциско, в доме своей почившей бабушки. Они - прирожденные ведьмы. Все предки сестер Холливелл по женской линии были ворожеями. Судьба Прю, Пайпер и Фиби предопределена. Сестры должны принять ведьминский сан и навсегда отказаться от походов в церковь.
    Девушки находят на чердаке Книгу таинств и произносят над ее страницами заклинание. Волшебство начинается! Как подействовала магическая сила заклинания? Из чаровниц, способных вскружить голову любому мужчине, сестры превращаются в настоящих чародеек!
    Список серий:
    1 A Witch's Tail
    2 A Witch's Tail, Pt 2
    3 Happily Ever After
    4 Siren's Song
    5 Witches In Tights
    6 The Eyes Have It
    7 Sympathy For The Demon
    8 A Witch In Time
    9 Sam I Am
    10 Y Tu Mummy Tambien
    11 The Importance of Being Phoebe
    12 Centennial Charmed
    13 House Call
    14 Sand Francisco Dreamin'
    15 The Day The Magic Died
    16 Baby's First Demon
    17 Lucky Charmed
    18 Cat House
    19 Naughty Nymphs
    20 Sense & Sense Ability
    21 Necromancing the Stone
    22 - 23 Oh My Goddess
    Качество: DVDRip
    Формат: MP4
    Видео кодек: H.264
    Аудио кодек: AAC
    Видео: AVC; 480x360 (4:3); 695 Kbps; 29,970 fps; 0,134 bpp
    Аудио: AAC LC; 156 Kbps; VBR; 2 ch; 16 bit
    СЕЗОН 1
    СЕЗОН 2
    СЕЗОН 3
    СЕЗОН 4
    СЕЗОН 6
    СЕЗОН 7
    СЕЗОН 8

    Тех. данные

    Общая информация
    00:43:57
    Видео
    Format: AVC
    Duration: 00:43:57
    Width: 480
    Height: 360
    Bitrate: 696
    BitrateMode: VBR
    FrameRate: 25
    FrameRateMode: CFR
    BitsPerPixel: 0,161
    DisplayAspectRatio: 4:3
    ScanType: Progressive
    StreamSize: 218,92 MB
    Colorimetry: 4:2:0
    FrameCount: 65930
    Аудио
    Format: AAC LC
    Duration: 00:43:57
    Bitrate: 159
    BitrateMode: VBR
    Channels: 2
    ChannelPositions: L R
    SamplingRate: 48
    SamplingCount: 126599136
    Resolution: 16
    StreamSize: 50,30 MB

    Скриншоты







  • Сериалы для iPod, iPhone, iPad > [iPhone] Зачарованные 4 сезон / Charmed (Aaron Spelling) [1998, фэнтези, комедия, мелодрама, драма, детектив, DVDRip, 480x360]
  • 15-Сен-2018 21:46

    Ranku

    Зачарованные 4 сезон / Charmed 4 Season
    Год выпуска: 1998 - 2006 (8 сезонов)
    Страна: США
    Жанр: фэнтези, комедия, мелодрама, драма, детектив
    Продолжительность: 42 минуты каждая серия
    Перевод: Профессиональный (многоголосый, закадровый)
    Русские субтитры: нет
    Режиссер: Aaron Spelling
    В ролях: Холли Мари Комбс /Holly Marie Combs/, Алисса Милано /Alyssa Milano/, Роуз МакГоун /Rose McGowan/, Тед Кинг /Ted King/, Дориан Грегори /Dorian Gregory/, Брайан Краузе /Brian Krause/, Грег Вон /Greg Vaughan/, Керис Пейдж Брайант /Karis Paige Bryant/, Джулиан МакМахон /Julian McMahon/
    Описание: Три сестры, три создания нежных живут в Сан-Франциско, в доме своей почившей бабушки. Они - прирожденные ведьмы. Все предки сестер Холливелл по женской линии были ворожеями. Судьба Прю, Пайпер и Фиби предопределена. Сестры должны принять ведьминский сан и навсегда отказаться от походов в церковь.
    Девушки находят на чердаке Книгу таинств и произносят над ее страницами заклинание. Волшебство начинается! Как подействовала магическая сила заклинания? Из чаровниц, способных вскружить голову любому мужчине, сестры превращаются в настоящих чародеек!
    Список серий:
    1 - 2 Charmed Again
    3 Hell Hath No Fury
    4 Enter The Demon
    5 Size Matters
    6 A Knight To Remember
    7 Brain Drain
    8 Black As Cole
    9 Muse To My Ears
    10 A Paige From The Past
    11 Trial By Magic
    12 Lost and Bound
    13 Charmed and Dangerous
    14 Three Faces of Phoebe
    15 Marry-Go-Round
    16 The Fifth Halliwheel
    17 Saving Private Leo
    18 Bite Me
    19 We're Off To See The Wizard
    20 Long Live The Queen
    21 Womb Raider
    22 Witch Way Now
    Качество: DVDRip
    Формат: MP4
    Видео кодек: H.264
    Аудио кодек: AAC
    Видео: AVC; 480x360 (4:3); 695 Kbps; 29,970 fps; 0,134 bpp
    Аудио: AAC LC; 156 Kbps; VBR; 2 ch; 16 bit
    СЕЗОН 1
    СЕЗОН 2
    СЕЗОН 3
    СЕЗОН 5
    СЕЗОН 6
    СЕЗОН 7
    СЕЗОН 8

    Тех. данные

    Общая информация
    01:22:47
    Видео
    Format: AVC
    Duration: 01:22:47
    Width: 480
    Height: 360
    Bitrate: 696
    BitrateMode: VBR
    FrameRate: 25
    FrameRateMode: CFR
    BitsPerPixel: 0,161
    DisplayAspectRatio: 4:3
    ScanType: Progressive
    StreamSize: 412,33 MB
    Colorimetry: 4:2:0
    FrameCount: 124191
    Аудио
    Format: AAC LC
    Duration: 01:22:47
    Bitrate: 159
    BitrateMode: VBR
    Channels: 2
    ChannelPositions: L R
    SamplingRate: 44
    SamplingCount: 219083773
    Resolution: 16
    StreamSize: 94,74 MB

    Скриншоты









  • Сериалы для iPod, iPhone, iPad > V \\ Визитеры \\ Знак победы 1-2 сезоны (полностью все серии) [1983-1985 Фантастика (Sci-Fi), боевик, драма, триллер DVDRip] (перезалито 23.12.09)
  • 15-Сен-2018 21:44

    Ranku

    V\Визитеры \ Знак победы \ Виктория (Оригинальные серии) / Victory, Visitors
    Год выпуска: 1983-1985
    Страна: США
    Жанр: Фантастика (Sci-Fi), боевик, драма, триллер
    Продолжительность: 5x1,5 ч. + 19х45 мин.
    Перевод: Профессиональный (одноголосный, закадровый)
    Русские субтитры: нет
    Режиссер: Кеннет Джонсон (Kenneth Johnson)
    В ролях: Faye Grant as Dr. Julie Parrish, Jane Badler as Diana, June Chadwick as Lydia, Michael Ironside as Ham Tyler, Robert Englund as Willie, Jeff Yagher as Kyle Bates, Jennifer Cooke as Elizabeth, Judson Scott as Lt. James, Frank Ashmore as Martin, Aki Aleong as Mr. Chiang
    Описание: Над крупными городами Земли появляются и зависают в воздухе огромные летающие тарелки. Инопланетяне, внешне очень похожие на людей, вступают в контакт с землянами и сообщают, что пришли с миром, и что им нужна наша помощь. В обмен они предлагают свои научные достижения и технологии. Руководители стран верят и соглашаются помочь. Но вскоре начинают происходить странные вещи. Исчезают люди, учёные. На улицах появляются патрули пришельцев, которые призваны "поддерживать порядок". Создаётся молодёжное общество друзей пришельцев. Влияние пришельцев растёт. В итоге они фактически устанавливают контроль над государствами.
    Но находятся люди, которые не согласны с таким положением вещей и не верят мирным намерениям пришельцев. Майку Доновану (один из главных героев), репортёру телевидения, удаётся увидеть истинное лицо пришельцев и узнать их реальные планы.
    Вскоре, волею случая, он встречается с группой людей, которые также понимают, что происходит нечто странное. Они вместе организуют отряд сопротивления и начинают борьбу с инопланетными захватчиками.
    Доп. информация: Вшиты обложки, описание, и прочие теги,.
    Качество: DVDRip
    Формат: MP4
    Видео кодек: H.264
    Аудио кодек: AAC
    Видео (Сезон I) 480*272 (16*9) 512кбит\сек 29,970 кадр\сек
    Видео (Сезон II): 480*368 (4*3) 512кбит\сек 29,970 кадр\сек
    Аудио: 129 кбит/сек 48КГц, 2 канала, ACC (Version 4) (LC)

    Скриншоты




    Тех. Данные Media Info

    Общее
    Полное имя : \\Server\snake\Сериалы iPhone\v_iPhone\Сезон II\V_-_2x19_-_The_Return.(DVDRip.Cade&SpaceBalls.640x360x29,97.Rus.by.Ieroglif.RSFDrive.com).mp4
    Формат : MPEG-4
    Профайл формата : Base Media
    Идентификатор кодека : isom
    Размер файла : 220 Мегабайт
    Продолжительность : 47 м.
    Общий поток : 644 Кбит/сек
    Альбом : V
    Часть/Положение : 0
    Часть/Всего : 0
    Дорожка/Положение : 0
    Дорожка/Всего : 0
    Исполнитель : Faye Grant as Dr. Julie Parrish / Jane Badler as Diana / June Chadwick as Lydia / Michael Ironside as Ham Tyler / Robert Englund as Willie / Jeff Yagher as Kyle Bates / Jennifer Cooke as Elizabeth / Judson Scott as Lt. James / Frank Ashmore as Martin / Aki Aleong
    Жанр : Sci-Fi & Fantasy
    Дата кодирования : 1985
    Дата пометки : UTC 2009-12-21 18:09:14
    Обложка : Yes
    ©ope : snakeness.com
    ©url : www.snakeness.com
    ldes : Земляне устанавливают контакт с инопланетянами , которые на самом деле оказываются маскерующимеся под людей ящерами. И начинается война.Они прилетели! Над крупными городами Земли появляются и зависают в воздухе огромные летающие тарелки. Инопланетяне, очень похожие на людей, сообщают что пришли с миром и за помощью. Но тогда почему вскоре патрули пришельцев начинают появляются на улицах и почему Америка и во всем мире с каждым днем все больше и больше похожа на полицейское государство? И вообще - так ли эти пришельцы похоже на нас?... Это история Сопротивления. Это история людей которые борются за нашу планету!
    tvsh : V
    tvsn : 2
    tves : 0
    stik : 10
    Видео
    Идентификатор : 1
    Формат : AVC
    Формат/Информация : Advanced Video Codec
    Профайл формата : Baseline@L3.0
    Параметры CABAC формата : Нет
    Параметры ReFrames формата : 6 кадры
    Идентификатор кодека : avc1
    Идентификатор кодека/Информация : Advanced Video Coding
    Продолжительность : 47 м.
    Вид битрейта : Переменный
    Битрейт : 512 Кбит/сек
    Максимальный битрейт : 1527 Кбит/сек
    Ширина : 480 пикс.
    Высота : 368 пикс.
    Соотношение кадра : 4:3
    Режим частоты кадров : Постоянный
    Частота кадров : 29,970 кадр/сек
    Разрешение : 24 бит
    Колориметрия : 4:2:0
    Тип развёртки : Прогрессивная
    Бит/(Пиксели*Кадры) : 0.097
    Размер потока : 175 Мегабайт (80%)
    Библиотека кодирования : x264 core 65 r999kMod cc51047
    Настройки программы : cabac=0 / ref=6 / deblock=1:-2:-1 / analyse=0x1:0x131 / me=umh / subme=7 / psy_rd=1.0:0.0 / mixed_ref=1 / me_range=16 / chroma_me=1 / trellis=0 / 8x8dct=0 / cqm=0 / deadzone=21,11 / chroma_qp_offset=-2 / threads=2 / thread_queue=2 / nr=0 / decimate=0 / mbaff=0 / bframes=0 / keyint=250 / keyint_min=25 / scenecut=40(pre) / rc=2pass / bitrate=512 / ratetol=1.0 / qcomp=0.60 / qpmin=10 / qpmax=51 / qpstep=4 / cplxblur=20.0 / qblur=0.5 / ip_ratio=1.40 / aq=1:1.00
    Дата кодирования : UTC 2009-12-21 18:09:14
    Дата пометки : UTC 2009-12-21 18:09:23
    Аудио
    Идентификатор : 2
    Формат : AAC
    Формат/Информация : Advanced Audio Codec
    Версия формата : Version 4
    Профайл формата : LC
    Параметры SBR формата : Нет
    Параметры PS формата : Да
    Идентификатор кодека : 40
    Продолжительность : 47 м.
    Вид битрейта : Переменный
    Битрейт : 129 Кбит/сек
    Максимальный битрейт : 151 Кбит/сек
    Канал(ы) : 2 канала(ов)
    Расположение каналов : Front: L R
    Частота : 48,0 КГц
    Разрешение : 16 бит
    Размер потока : 44,0 Мегабайт (20%)
    Дата кодирования : UTC 2009-12-21 18:09:21
    Дата пометки : UTC 2009-12-21 18:09:23

    Другие мои раздачи для iPhone

    http://rutracker.org/forum/tracker.php?rid=8003351
    Торен перезалит по причине перекодирования видео в правильное разрешение. 23.12.2009
  • Сериалы для iPod, iPhone, iPad > Зачарованные 6 сезон / Charmed (Aaron Spelling) [1998, фэнтези, комедия, мелодрама, драма, детектив, DVDRip]
  • 09-Авг-2018 17:21

    Ranku

    Зачарованные 6 сезон / Charmed 6 Season
    Год выпуска: 1998 - 2006 (8 сезонов)
    Страна: США
    Жанр: фэнтези, комедия, мелодрама, драма, детектив
    Продолжительность: 42 минуты каждая серия
    Перевод: Профессиональный (многоголосый, закадровый)
    Русские субтитры: нет
    Режиссер: Aaron Spelling
    В ролях: Шеннон Доэрти /Shannen Doherty/, Холли Мари Комбс /Holly Marie Combs/, Алисса Милано /Alyssa Milano/, Роуз МакГоун /Rose McGowan/, Тед Кинг /Ted King/, Дориан Грегори /Dorian Gregory/, Брайан Краузе /Brian Krause/, Грег Вон /Greg Vaughan/, Керис Пейдж Брайант /Karis Paige Bryant/, Джулиан МакМахон /Julian McMahon/
    Описание: Три сестры, три создания нежных живут в Сан-Франциско, в доме своей почившей бабушки. Они - прирожденные ведьмы. Все предки сестер Холливелл по женской линии были ворожеями. Судьба Прю, Пайпер и Фиби предопределена. Сестры должны принять ведьминский сан и навсегда отказаться от походов в церковь.
    Девушки находят на чердаке Книгу таинств и произносят над ее страницами заклинание. Волшебство начинается! Как подействовала магическая сила заклинания? Из чаровниц, способных вскружить голову любому мужчине, сестры превращаются в настоящих чародеек!
    Список серий:
    1 - 2 Valkyrie Vixens
    3 Dragon's Heat
    4 Dirty Blondes
    5 Loves a Witch
    6 Fantasies in the Flesh
    7 Soul Sister
    8 Charmed in Camelot
    9 Hot Mamas
    10 Chris-Crossed
    11 Witchstock
    12 Prince Charmed
    13 Used Karma
    14 The Legend of Sleepy Halliwell
    15 I Dream of Phoebe
    16 The Courtship of Wyatt's Father
    17 Hyde School Reunion
    18 Spin City
    19 Crimes and Witch Demeanors
    20 A Wrong Day's Journey to Right
    21 Witch Wars
    22 - 23 It's A Bad, Bad, Bad, Bad World
    Качество: DVDRip
    Формат: MP4
    Видео кодек: H.264
    Аудио кодек: AAC
    Видео: AVC; 480x360 (4:3); 695 Kbps; 29,970 fps; 0,134 bpp
    Аудио: AAC LC; 156 Kbps; VBR; 2 ch; 16 bit
    СЕЗОН 1
    СЕЗОН 2
    СЕЗОН 3
    СЕЗОН 4
    СЕЗОН 5
    СЕЗОН 7
    СЕЗОН 8

    Тех. данные

    Общая информация
    00:42:23
    Видео
    Format: AVC
    Duration: 00:42:23
    Width: 480
    Height: 360
    Bitrate: 695
    BitrateMode: VBR
    FrameRate: 25
    FrameRateMode: CFR
    BitsPerPixel: 0,161
    DisplayAspectRatio: 4:3
    ScanType: Progressive
    StreamSize: 210,87 MB
    Colorimetry: 4:2:0
    FrameCount: 63582
    Аудио
    Format: AAC LC
    Duration: 00:42:23
    Bitrate: 159
    BitrateMode: VBR
    Channels: 2
    ChannelPositions: L R
    SamplingRate: 48
    SamplingCount: 122089440
    Resolution: 16
    StreamSize: 48,51 MB

    Скриншоты









  • Сериалы для iPod, iPhone, iPad > Зачарованные 7 сезон / Charmed (Aaron Spelling) [1998, фэнтези, комедия, мелодрама, драма, детектив, DVDRip]
  • 09-Авг-2018 16:24

    Ranku

    Зачарованные 7 сезон / Charmed 7 Season
    Год выпуска: 1998 - 2006 (8 сезонов)
    Страна: США
    Жанр: фэнтези, комедия, мелодрама, драма, детектив
    Продолжительность: 42 минуты каждая серия
    Перевод: Профессиональный (многоголосый, закадровый)
    Русские субтитры: нет
    Режиссер: Aaron Spelling
    В ролях: Шеннон Доэрти /Shannen Doherty/, Холли Мари Комбс /Holly Marie Combs/, Алисса Милано /Alyssa Milano/, Роуз МакГоун /Rose McGowan/, Тед Кинг /Ted King/, Дориан Грегори /Dorian Gregory/, Брайан Краузе /Brian Krause/, Грег Вон /Greg Vaughan/, Керис Пейдж Брайант /Karis Paige Bryant/, Джулиан МакМахон /Julian McMahon/
    Описание: Три сестры, три создания нежных живут в Сан-Франциско, в доме своей почившей бабушки. Они - прирожденные ведьмы. Все предки сестер Холливелл по женской линии были ворожеями. Судьба Прю, Пайпер и Фиби предопределена. Сестры должны принять ведьминский сан и навсегда отказаться от походов в церковь.
    Девушки находят на чердаке Книгу таинств и произносят над ее страницами заклинание. Волшебство начинается! Как подействовала магическая сила заклинания? Из чаровниц, способных вскружить голову любому мужчине, сестры превращаются в настоящих чародеек!
    Список серий:
    1 A Call To Arms
    2 The Bare Witch Project
    3 Cheaper By The Coven
    4 Charrrmed!
    5 Styx Feet Under
    6 Once in a Blue Moon
    7 Someone to Witch Over Me
    8 Charmed Noir
    9 There's Something About Leo
    10 Witchness Protection
    11 Ordinary Witches
    12 Ordinary Witches
    13 Charmedageddon
    14 Carpe Demon
    15 ShowGhouls
    16 7 Year Witch
    17 Scry Hard
    18 Little Box of Horrors
    19 Freaky Phoebe
    20 Imaginary Friends
    21 Death Becomes Them
    22 Something Wicca This Way Goes
    Качество: DVDRip
    Формат: MP4
    Видео кодек: H.264
    Аудио кодек: AAC
    Видео: AVC; 480x360 (4:3); 695 Kbps; 29,970 fps; 0,134 bpp
    Аудио: AAC LC; 156 Kbps; VBR; 2 ch; 16 bit
    СЕЗОН 1
    СЕЗОН 2
    СЕЗОН 3
    СЕЗОН 4
    СЕЗОН 5
    СЕЗОН 6
    СЕЗОН 8

    Тех. данные

    Общая информация
    00:41:35
    Видео
    Format: AVC
    Duration: 00:41:35
    Width: 480
    Height: 360
    Bitrate: 695
    BitrateMode: VBR
    FrameRate: 25
    FrameRateMode: CFR
    BitsPerPixel: 0,161
    DisplayAspectRatio: 4:3
    ScanType: Progressive
    StreamSize: 206,95 MB
    Colorimetry: 4:2:0
    FrameCount: 62381
    Аудио
    Format: AAC LC
    Duration: 00:41:35
    Bitrate: 160
    BitrateMode: VBR
    Channels: 2
    ChannelPositions: L R
    SamplingRate: 48
    SamplingCount: 119785440
    Resolution: 16
    StreamSize: 47,60 MB

    Скриншоты

    [/img]







  • Сериалы для iPod, iPhone, iPad > Части тела / Nip Tuck - Сезон 4 [2006, драма, DVDRip]
  • 17-Июл-2018 11:47

    Ranku

    Части тела / Nip Tuck - Сезон 4- Название: "Части тела"
    Оригинальное название: “Nip Tuck”
    Год выпуска: 2006
    Жанр: Драма
    Перевод: Профессиональный (полное дублирование) от канала СТС
    Размер: ~200 мегабайт на серию-Режиссер: Грег Яйтанес, Элоди Кин, Райан Мэрфи, Крэйг Зиск и др.
    В ролях: Дилан Уолш, Джулиан МакМэйхон, Джон Хенсли, Валери Круз, Рома Маффиа, Бруно Кампос, Джоэли Ричардсон, Келли Карлсон, Джессалин Гилсиг-Описание: Шон МакНамара и Кристиан Трой – два талантливых пластических хирурга, которые делают красивых женщин безупречными в собственной частной клинике, расположенной в Майами. Операции стоят невероятно дорого, и клиентки бывают готовы на всё, чтобы задержать ускользающую красоту или её приумножить.
    Шон и Кристиан не только партнёры в одном бизнесе, но и друзья. Однако между ними часто возникают разногласия из-за разного отношения к жизни, к своему делу и к женщинам.
    Шон, более серьезный, старается полностью погрузиться в работу, чтобы отвлечься от проблем с женой и сыном-тинэйджером. Клятва Гиппократа не пустые слова для Шона, он работает самоотверженно, даже готов делать бесплатные операции жертвам пожаров и действительно нуждающимся. Эти благородные порывы Шона не находят отклика в сердце Кристиана, работающего исключительно ради денег и возможности завести интрижку с очередной пациенткой. Доллары, дамы и вино – вот что нужно Кристиану, и он пойдёт на всё, чтобы заполучить желаемое: на ложь, обман, измену, шантаж и даже... на убийство! Судьба готовит двум друзьям множество сюрпризов, встреч, неожиданных поворотов и открытий!
    Симпатичные врачи, сексапильные пациентки, красивая любовь на фоне дорогих интерьеров штата Флорида.-IMDB Rating: 8.5/10 (13,783 votes)-Качество: DVDRip
    Формат: MP4
    Видео: 480x264; 24fps; h264; 512kbps
    Аудио: 48kHz; stereo; AAC; 128kbps-

    Содержание сезона

    Серия 1: Синди Пламб / Cindy Plumb
    Серия 2: Блу Монда / Blu Mondae
    Серия 3: Моника Уаилдер / Monica Wilder
    Серия 4: Шари Ноубл / Shari Noble
    Серия 5: Дон Бадж / Dawn Budge
    Серия 6: Фэйт Уолпер / Faith Wolper, PhD
    Серия 7: Барт Ландау / Burt Landau
    Серия 8: Конор МакНамара / Conor McNamara
    Серия 9: Лиз Круз / Liz Cruz
    Серия 10: Мэррилл Боболит / Merrill Bobolit
    Серия 11: Конор МакНамара, 2026 / Conor McNamara, 2026
    Серия 12: Диана Лаби / Diana Lubey
    Серия 13: Рифер / Reefer
    Серия 14: Вилли Уорд / Willy Ward
    Серия 15: Гала Галлардо / Gala Gallardo

    Скриншоты

    Сэмпл

    Сэмпл

    Тех. данные

    Video
    Count : 119
    Count of stream of this kind : 1
    Kind of stream : Video
    StreamKindID : 0
    ID : 1
    Format : AVC
    Format/Info : Advanced Video Codec
    Format/Url : http://developers.videolan.org/x264.html
    Format profile : Baseline@L3.0
    Format settings : 6 Ref Frames
    Format settings, CABAC : No
    Format settings, ReFrames : 6
    Codec ID : avc1
    Codec ID/Url : http://www.apple.com/quicktime/download/standalone.html
    Codec : AVC
    Codec : AVC
    Codec/Family : AVC
    Codec/Info : Advanced Video Codec
    Codec/Url : http://developers.videolan.org/x264.html
    Codec/CC : avc1
    Codec profile : Baseline@L3.0
    Codec settings : 6 Ref Frames
    Codec settings, CABAC : No
    Codec_Settings_RefFrames : 6
    Duration : 3077640
    Duration : 51mn 17s
    Duration : 51mn 17s 640ms
    Duration : 51mn 17s
    Duration : 00:51:17.640
    Bit rate mode : VBR
    Bit rate : 511896
    Bit rate : 512 Kbps
    Maximum bit rate : 1721920
    Maximum bit rate : 1722 Kbps
    Width : 480
    Width : 480 pixels
    Height : 264
    Height : 264 pixels
    Pixel Aspect Ratio : 1.000
    Display aspect ratio : 1.818
    Display aspect ratio : 16/9
    Frame rate mode : CFR
    Frame rate : 25.000
    Frame rate : 25.000 fps
    FrameCount : 76941
    Colorimetry : 4:2:0
    Scan type : Progressive
    Scan type : Progressive
    Interlacement : PPF
    Interlacement : Progressive
    Bits/(Pixel*Frame) : 0.162
    Stream size : 196930879
    Stream size : 188 MiB
    Stream size : 188 MiB
    Stream size : 188 MiB
    Stream size : 188 MiB
    Stream size : 187.8 MiB
    Audio
    Count : 102
    Count of stream of this kind : 1
    Kind of stream : Audio
    StreamKindID : 0
    ID : 2
    Format : AAC
    Format/Info : Advanced Audio Codec
    Format version : Version 4
    Format profile : LC
    Format settings, SBR : No
    Codec : A_AAC/MPEG4/LC
    Codec : AAC LC
    Codec/Family : AAC
    Codec/Info : AAC Low Complexity
    Codec/CC : 40
    Duration : 3077696
    Duration : 51mn 17s
    Duration : 51mn 17s 696ms
    Duration : 51mn 17s
    Duration : 00:51:17.696
    Bit rate mode : VBR
    Bit rate : 128896
    Bit rate : 129 Kbps
    Maximum bit rate : 161728
    Maximum bit rate : 162 Kbps
    Channel(s) : 2
    Channel(s) : 2 channels
    Channel positions : L R
    Sampling rate : 48000
    Sampling rate : 48.0 KHz
    SamplingCount : 147729408
    Resolution : 16
    Resolution : 16 bits
    Stream size : 49588208
    Stream size : 47.3 MiB
    Stream size : 47 MiB
    Stream size : 47 MiB
    Stream size : 47.3 MiB
    Stream size : 47.29 MiB
    Как закачать отдельный файл из торрента или докачать ранее пропущенные файлы торрента!-Скачать Части тела / Nip Tuck - Сезон 1
    Скачать Части тела / Nip Tuck - Сезон 2
    Скачать Части тела / Nip Tuck - Сезон 3
    Скачать Части тела / Nip Tuck - Сезон 5
    Скачать Части тела / Nip Tuck - Сезон 6
    Скачать Части тела / Nip Tuck - Сезон 7-
  • Сериалы для iPod, iPhone, iPad > Зачарованные 8 сезон / Charmed (Aaron Spelling) [1998, фэнтези, комедия, мелодрама, драма, детектив, DVDRip]
  • 17-Июл-2018 10:11

    Ranku

    Зачарованные 8 сезон / Charmed 8 Season
    Год выпуска: 1998 - 2006 (8 сезонов)
    Страна: США
    Жанр: фэнтези, комедия, мелодрама, драма, детектив
    Продолжительность: 42 минуты каждая серия
    Перевод: Профессиональный (многоголосый, закадровый)
    Русские субтитры: нет
    Режиссер: Aaron Spelling
    В ролях: Шеннон Доэрти /Shannen Doherty/, Холли Мари Комбс /Holly Marie Combs/, Алисса Милано /Alyssa Milano/, Роуз МакГоун /Rose McGowan/, Тед Кинг /Ted King/, Дориан Грегори /Dorian Gregory/, Брайан Краузе /Brian Krause/, Грег Вон /Greg Vaughan/, Керис Пейдж Брайант /Karis Paige Bryant/, Джулиан МакМахон /Julian McMahon/
    Описание: Три сестры, три создания нежных живут в Сан-Франциско, в доме своей почившей бабушки. Они - прирожденные ведьмы. Все предки сестер Холливелл по женской линии были ворожеями. Судьба Прю, Пайпер и Фиби предопределена. Сестры должны принять ведьминский сан и навсегда отказаться от походов в церковь.
    Девушки находят на чердаке Книгу таинств и произносят над ее страницами заклинание. Волшебство начинается! Как подействовала магическая сила заклинания? Из чаровниц, способных вскружить голову любому мужчине, сестры превращаются в настоящих чародеек!
    Список серий:
    1 Still Charmed and Kicking
    2 Malice In Wonderland
    3 Run Piper Run
    4 Desperate Housewitches
    5 Rewitched
    6 Kill Billie Vol 1
    7 The Lost Picture Show
    8 Battle Of The Hexes
    9 Hulkus Pocus
    10 Vaya Con Leos
    11 Mr And Mrs Witch
    12 Payback's A Witch
    13 Repro Manor.
    14 12 Angry Zen
    15 The Last Temptation Of Christy
    16 Engaged And Confused
    17 Generation Hex
    18 The Torn Identity
    19 The Jung And The Restless.
    20 Gone With The Witches
    21 Kill Billie Vol 2
    22 Forever Charmed
    Качество: DVDRip
    Формат: MP4
    Видео кодек: H.264
    Аудио кодек: AAC
    Видео: AVC; 480x360 (4:3); 695 Kbps; 29,970 fps; 0,134 bpp
    Аудио: AAC LC; 156 Kbps; VBR; 2 ch; 16 bit
    СЕЗОН 1
    СЕЗОН 2
    СЕЗОН 3
    СЕЗОН 4
    СЕЗОН 5
    СЕЗОН 6
    СЕЗОН 7

    Тех. данные

    Общая информация
    00:41:57
    Видео
    Format: AVC
    Duration: 00:41:56
    Width: 480
    Height: 360
    Bitrate: 697
    BitrateMode: VBR
    FrameRate: 23,976
    FrameRateMode: CFR
    BitsPerPixel: 0,168
    DisplayAspectRatio: 4:3
    ScanType: Progressive
    StreamSize: 209,23 MB
    Colorimetry: 4:2:0
    FrameCount: 60345
    Аудио
    Format: AAC LC
    Duration: 00:41:57
    Bitrate: 153
    BitrateMode: VBR
    Channels: 2
    ChannelPositions: L R
    SamplingRate: 48
    SamplingCount: 120825840
    Resolution: 16
    StreamSize: 46,03 MB

    Скриншоты










  • Сериалы для iPod, iPhone, iPad > Части тела / Nip Tuck - Сезон 5 [2007-2009, драма, DVDRip]
  • 11-Июл-2018 22:43

    Ranku

    Части тела / Nip Tuck - Сезон 5- Название: "Части тела"
    Оригинальное название: “Nip Tuck”
    Год выпуска: 2007-2009
    Жанр: Драма
    Перевод: Первые 14 серий - профессиональный (полное дублирование) от канала СТС, далее - перевод от "1001 Cinema".
    Размер: ~200 мегабайт на серию-Режиссер: Грег Яйтанес, Элоди Кин, Райан Мэрфи, Крэйг Зиск и др.
    В ролях: Дилан Уолш, Джулиан МакМэйхон, Джон Хенсли, Валери Круз, Рома Маффиа, Бруно Кампос, Джоэли Ричардсон, Келли Карлсон, Джессалин Гилсиг-Описание: Шон МакНамара и Кристиан Трой – два талантливых пластических хирурга, которые делают красивых женщин безупречными в собственной частной клинике, расположенной в Майами. Операции стоят невероятно дорого, и клиентки бывают готовы на всё, чтобы задержать ускользающую красоту или её приумножить.
    Шон и Кристиан не только партнёры в одном бизнесе, но и друзья. Однако между ними часто возникают разногласия из-за разного отношения к жизни, к своему делу и к женщинам.
    Шон, более серьезный, старается полностью погрузиться в работу, чтобы отвлечься от проблем с женой и сыном-тинэйджером. Клятва Гиппократа не пустые слова для Шона, он работает самоотверженно, даже готов делать бесплатные операции жертвам пожаров и действительно нуждающимся. Эти благородные порывы Шона не находят отклика в сердце Кристиана, работающего исключительно ради денег и возможности завести интрижку с очередной пациенткой. Доллары, дамы и вино – вот что нужно Кристиану, и он пойдёт на всё, чтобы заполучить желаемое: на ложь, обман, измену, шантаж и даже... на убийство! Судьба готовит двум друзьям множество сюрпризов, встреч, неожиданных поворотов и открытий!
    Симпатичные врачи, сексапильные пациентки, красивая любовь на фоне дорогих интерьеров штата Флорида.-IMDB Rating: 8.5/10 (13,783 votes)-Качество: DVDRip
    Формат: MP4
    Видео: 480x264; 24fps; h264; 512kbps
    Аудио: 48kHz; stereo; AAC; 128kbps-

    Содержание сезона

    Серия 1: Carly Summers / Карли Саммерс
    Серия 2: Joyce and Sharon Monroe / Джойс и Шерон Монро
    Серия 3: Everett Poe / Эверетт По
    Серия 4: Dawn Budge II/ Дон Бадж, часть вторая
    Серия 5: Chaz Darling / Чез Дарлинг
    Серия 6: Damien Sands / Дэмиен Сендс
    Серия 7: Dr. Joshua Lee / Доктор Джошуа Ли
    Серия 8: Duke Collins / Дьюк Коллинс
    Серия 9: Rachel Ben Natan / Рейчел Бен Натан
    Серия 10: Magda & Jeff / Магда и Джефф
    Серия 11: Kyle Ainge / Кайл Эйндж
    Серия 12: Lulu Grandiron / Лулу Грандайрон
    Серия 13: August Walden / Огаст Уолден
    Серия 14: Candy Richards/Кенди Ричардс
    Серия 15: Ronnie Chase/ Ронни Чейз
    Серия 16: Gene Shelly/ Джин Шелли
    Серия 17: Roxy St. James/ Рокси Сейнт Джеймс
    Серия 18: Ricky Wells/ Рикки Уэллс
    Серия 19: Manny Skerrit/ Мэнни Скеррит
    Серия 20: Budi Sabri/ Бади Сабри
    Серия 21: Allegra Calderella/ Аллегра Калдарелла
    Серия 22: Giselle Blaylock & Legend Chandler/ Жизель Блейлок и Ледженд Чендлер

    Скриншоты

    Сэмпл

    Сэмпл

    Тех. данные

    Video
    Count : 119
    Count of stream of this kind : 1
    Kind of stream : Video
    StreamKindID : 0
    ID : 1
    Format : AVC
    Format/Info : Advanced Video Codec
    Format/Url : http://developers.videolan.org/x264.html
    Format profile : Baseline@L3.0
    Format settings : 6 Ref Frames
    Format settings, CABAC : No
    Format settings, ReFrames : 6
    Codec ID : avc1
    Codec ID/Url : http://www.apple.com/quicktime/download/standalone.html
    Codec : AVC
    Codec : AVC
    Codec/Family : AVC
    Codec/Info : Advanced Video Codec
    Codec/Url : http://developers.videolan.org/x264.html
    Codec/CC : avc1
    Codec profile : Baseline@L3.0
    Codec settings : 6 Ref Frames
    Codec settings, CABAC : No
    Codec_Settings_RefFrames : 6
    Duration : 2623040
    Duration : 43mn 43s
    Duration : 43mn 43s 40ms
    Duration : 43mn 43s
    Duration : 00:43:43.040
    Bit rate mode : VBR
    Bit rate : 511840
    Bit rate : 512 Kbps
    Maximum bit rate : 1912136
    Maximum bit rate : 1912 Kbps
    Width : 480
    Width : 480 pixels
    Height : 264
    Height : 264 pixels
    Pixel Aspect Ratio : 1.000
    Display aspect ratio : 1.818
    Display aspect ratio : 16/9
    Frame rate mode : CFR
    Frame rate : 25.000
    Frame rate : 25.000 fps
    FrameCount : 65576
    Colorimetry : 4:2:0
    Scan type : Progressive
    Scan type : Progressive
    Interlacement : PPF
    Interlacement : Progressive
    Bits/(Pixel*Frame) : 0.162
    Stream size : 167824530
    Stream size : 160 MiB
    Stream size : 160 MiB
    Stream size : 160 MiB
    Stream size : 160 MiB
    Stream size : 160.0 MiB
    Audio
    Count : 102
    Count of stream of this kind : 1
    Kind of stream : Audio
    StreamKindID : 0
    ID : 2
    Format : AAC
    Format/Info : Advanced Audio Codec
    Format version : Version 4
    Format profile : LC
    Format settings, SBR : No
    Codec : A_AAC/MPEG4/LC
    Codec : AAC LC
    Codec/Family : AAC
    Codec/Info : AAC Low Complexity
    Codec/CC : 40
    Duration : 2623104
    Duration : 43mn 43s
    Duration : 43mn 43s 104ms
    Duration : 43mn 43s
    Duration : 00:43:43.104
    Bit rate mode : VBR
    Bit rate : 128744
    Bit rate : 129 Kbps
    Maximum bit rate : 142640
    Maximum bit rate : 143 Kbps
    Channel(s) : 2
    Channel(s) : 2 channels
    Channel positions : L R
    Sampling rate : 48000
    Sampling rate : 48.0 KHz
    SamplingCount : 125908992
    Resolution : 16
    Resolution : 16 bits
    Stream size : 42215886
    Stream size : 40.3 MiB
    Stream size : 40 MiB
    Stream size : 40 MiB
    Stream size : 40.3 MiB
    Stream size : 40.26 MiB
    Как закачать отдельный файл из торрента или докачать ранее пропущенные файлы торрента!-Скачать Части тела / Nip Tuck - Сезон 1
    Скачать Части тела / Nip Tuck - Сезон 2
    Скачать Части тела / Nip Tuck - Сезон 3
    Скачать Части тела / Nip Tuck - Сезон 4
    Скачать Части тела / Nip Tuck - Сезон 6
    Скачать Части тела / Nip Tuck - Сезон 7-
  • Сериалы для iPod, iPhone, iPad > Американский папа / American Dad! (4 сезон, серии 1-20, Full) (Майк Баркер / Mike Barker) [2008, Мультсериал, Комедия, DVDRip] (озвучка Little)
  • 03-Июл-2018 14:22

    Ranku

    Американский папаша! / American Dad! (4 сезон, серии 1-20, Full)
    Год выпуска: 2008
    Страна:
    Жанр: Мультсериал, Комедия
    Продолжительность: 20 серий по 22 минуты каждая
    Перевод: Любительский
    Озвучка: Little
    Русские субтитры: нет
    Режиссер: Mike Barker, Seth MacFarlane, Matt Weitzman
    В ролях: Seth MacFarlane, Wendy Schaal, Rachael MacFarlane, Scott Grimes, Dee Bradley Baker, Mike Barker
    Описание: «Американский папаша» (англ. American Dad!) — это американский телевизионный сериал производства студии «Андердог» (Underdog Productions) и «Фаззи Дор» (Fuzzy Door Productions) по заказу 20th Century Fox. Он был придуман и разработан, в большей степени, Сетом Макфарлейном, создателем сериала «Гриффины». «Американский папаша» является ярким представителем сатирического мультипликационного сериала, о жизни американской семьи. Сюжет разворачивается вокруг семьи Смитов, которая состоит из четырёх человек, одного пришельца и говорящей «Золотой рыбки». Сериал постоянно концентрируется на различных особенностях поп-культуры, политики, религии и любых других тематиках, часто фигурирующих в обществе. В сериале часто звучат «колкости» о современном обществе и тонкий юмор, показывающий особенности Американского общества.
    Источник: DVDRip
    Сэмпл: [url=http:// СПАМ
    Формат: MP4
    Видео кодек: H.264
    Аудио кодек: AAC
    Видео: MPEG4 Video (H264) 432x320 23.98fps
    Аудио: AAC 48000Hz stereo 1536Kbps

    Список серий

    Episode 1: 1600 Candles
    Episode 2: The One That Got Away
    Episode 3: One Little Word
    Episode 4: Choosy Wives Choose Smith
    Episode 5: Escape from Pearl Bailey
    Episode 6: Pulling Double Booty
    Episode 7: Phantom of the Telethon
    Episode 8: Chimdale
    Episode 9: Stan Time
    Episode 10: Family Affair
    Episode 11: Live and Let Fry
    Episode 12: Roy Rogers McFreely
    Episode 13: Jack's Back
    Episode 14: Bar Mitzvah Shuffle
    Episode 15: Wife Insurance
    Episode 16: Delorean Story-An
    Episode 17: Every Which Way But Lose
    Episode 18: Weiner of Our Discontent
    Episode 19: Daddy Queerest
    Episode 20: Stan's Night Out

    Скриншоты





  • Сериалы для iPod, iPhone, iPad > Пингвины из Мадагаскара / The Penguins of Madagascar / Сезон 1, серии 1–16 из 42 + Bonus [2009, мультипликационный сериал, HDTVRip] VSTeam Creative Group
  • 25-Июн-2018 14:53

    Ranku

    Пингвины из Мадагаскара / The Penguins of Madagascar
    &
    Рождественский Мадагаскар / Merry Madagascar

    -
    Пингвины из Мадагаскара
    The Penguins of Madagascar

    Год выпуска: 2008
    Страна: США
    Продолжительность: 10 min x 16 серий
    Жанр: Мультфильм, комедия, приключения, семейный.
    Перевод: Любительский (многоголосый, закадровый) + Оригинал.
    Режиссер: Брэт Хааланд
    В главных ролях:
    Джеймс Патрик Стюарт, Джефф Беннетт, Джон Ди Маджио, Дэнни Джейкобс, Том МакГрат, Кевин Майкл Ричардсон, Энди Рихтер, Николь Салливан, Мэри Шеер, Конрад Вернон.
    Роли озвучивала команда:
    VSTeam Creative Group

    Описание:
    Сюжет «Пингвинов Мадагаскара» строится вокруг самопровозглашенных коммандос Ковальски, Шкипера, Рико и Рядового, выполняющих ежедневные сверхсекретные операции на территории нью-йоркского зоопарка, иногда пробираясь в метро и подземные коммуникации…

    Скриншоты


    Список серий

    • Gone In a Flash / Пропавший во вспышке (BDrip)
    • Popcorn Panic / Попкорновая Паника (BDrip)
    • Launchtime / Поехали
    • Haunted Habitat / Таинственный Незнакомец
    • Operation Plush & Cover / Операция Игрушки под Защитой
    • Happy King Julien Day! / День Короля Джулиана
    • Paternal Egg-Stinct / Отцовский Инстинкт
    • Assault & Batteries / Нападение и Батарейки
    • Penguiner Takes All / Победитель Получает Всё
    • Two Feet High And Rising / Ногонеприкосновенность
    • Tangled in the Web / Запутавшиеся в Сети
    • Crown Fools / Дураки в Коронах
    • The Hidden / Скрытое
    • Kingdom Come / Да Прибудет Царствие
    • Little Zoo Coupe / Автомобиль - не роскошь (Маленький зоомобиль)
    • All Choked Up / Сыт по Горло
    - -Рождественский Мадагаскар
    Merry Madagascar

    Год выпуска: 2008
    Страна: США
    Продолжительность: 21:12
    Жанр: Мультфильм, комедия, приключения, семейный.
    Перевод: Профессиональный (многоголосый, закадровый).
    Режиссер: Дэвид Сорен
    В главных ролях:
    Бен Стиллер, Крис Рок, Дэвид Швиммер, Джада Пинкетт Смит, Седрик «Развлекатель», Энди Рихтер, Карл Райнер, Дэнни Джейкобс, Том МакГрат, Крис Миллер.
    Роли озвучивала команда:
    VSTeam Creative Group

    Описание:
    Санта-Клаус по вине «Мадагаскарской» компании, терпит аварию и попадает на Мадагаскарский остров, полученная амнезия грозит срыву торжеств. Алекс, Марти, Мелман и Глория берут на себя доставку подарков детям. Заодно они надеются вернуться в Нью-Йорк на санках Санты…

    Скриншоты

    - -

    Тех. данные

    Качество: HDTVRip
    Формат: M4V
    Видео: H.264 576х320 960 kbs (2 pass) 23.976 fps.
    Аудио: AAC-LC 160 kbs
    Прописаны все теги в том числе и TV Show

    MediaInfo

    Пример

    Общее
    Полное имя : H:\Multfilm\The Penguins of Madagascar\01. The Penguins Of Madagascar - Gone In A Flash.m4v
    Формат : MPEG-4
    Профайл формата : Base Media
    Идентификатор кодека : isom
    Размер файла : 112 Мегабайт
    Продолжительность : 12 м.
    Общий поток : 1288 Кбит/сек
    Фильм : Пропавший во Вспышке
    Альбом : Пингвины из Мадагаскара
    Исполнитель : Пингвины из Мадагаскара, Сезон 1
    Жанр : Animation
    Дата кодирования : 2009
    Дата пометки : UTC 2009-12-16 14:32:13
    Программа-кодировщик : XviD4PSP 5.0
    Правообладатель : © osetin24
    Обложка : Yes
    iTunEXTC : us-tv|TV-Y7|100|
    iTunMOVI : / / / / cast / / / name / Джеймс Патрик Стюарт / / / name / Джефф Беннетт / / / name / Джон Ди Маджио / / / name / Дэнни Джейкобс / / / name / Том МакГрат / / / name / Кевин Майкл Ричардсон / / / name / Энди Рихтер / / / name / Николь Салливан / / / name / Мэри Шеер / / / name / Конрад Вернон / / / directors / / / name / Брэт Хааланд / / / producers / / / name / Марк МакКоркл / / / name / Роберт Шули / / / screenwriters / / / name / Брэндон Сойер / / / /
    tvsh : Пингвины из Мадагаскара
    tven : Gone In A Flash
    tvsn : 1
    tves : 1
    desc : Сюжет «Пингвинов Мадагаскара» строится вокруг самопровозглашенных коммандос Ковальски, Шкипера, Рико и Рядового, выполняющих ежедневные сверхсекретные операции на территории нью-йоркского зоопарка, иногда пробираясь в метро и подземные коммуникации…
    ldes : Сюжет «Пингвинов Мадагаскара» строится вокруг самопровозглашенных коммандос Ковальски, Шкипера, Рико и Рядового, выполняющих ежедневные сверхсекретные операции на территории нью-йоркского зоопарка, иногда пробираясь в метро и подземные коммуникации…
    stik : 10
    Видео
    Идентификатор : 1
    Формат : AVC
    Формат/Информация : Advanced Video Codec
    Профайл формата : Baseline@L3.0
    Параметры CABAC формата : Нет
    Параметры ReFrames формата : 6 кадры
    Идентификатор кодека : avc1
    Идентификатор кодека/Информация : Advanced Video Coding
    Продолжительность : 12 м.
    Вид битрейта : Переменный
    Битрейт : 960 Кбит/сек
    Максимальный битрейт : 9910 Кбит/сек
    Ширина : 576 пикс.
    Высота : 320 пикс.
    Соотношение кадра : 16:9
    Режим частоты кадров : Постоянный
    Частота кадров : 23,976 кадр/сек
    Разрешение : 24 бит
    Колориметрия : 4:2:0
    Тип развёртки : Прогрессивная
    Бит/(Пиксели*Кадры) : 0.217
    Размер потока : 83,4 Мегабайт (74%)
    Библиотека кодирования : x264 core 75 r1251kMod e553a4c
    Настройки программы : cabac=0 / ref=6 / deblock=1:1:1 / analyse=0x1:0x111 / me=umh / subme=7 / psy=1 / psy_rd=1.0:0.0 / mixed_ref=1 / me_range=16 / chroma_me=1 / trellis=0 / 8x8dct=0 / cqm=0 / deadzone=21,11 / chroma_qp_offset=-2 / threads=3 / nr=0 / decimate=1 / mbaff=0 / bframes=0 / keyint=250 / keyint_min=25 / scenecut=40 / rc_lookahead=60 / rc=2pass / mbtree=1 / bitrate=960 / ratetol=1.0 / qcomp=0.60 / qpmin=10 / qpmax=51 / qpstep=4 / cplxblur=20.0 / qblur=0.5 / ip_ratio=1.40 / aq=1:0.80
    Дата кодирования : UTC 2009-12-14 21:52:29
    Дата пометки : UTC 2009-12-14 21:59:19
    Аудио #1
    Идентификатор : 2
    Формат : AAC
    Формат/Информация : Advanced Audio Codec
    Версия формата : Version 4
    Профайл формата : LC
    Параметры SBR формата : Нет
    Идентификатор кодека : 40
    Продолжительность : 12 м.
    Вид битрейта : Переменный
    Битрейт : 160 Кбит/сек
    Максимальный битрейт : 166 Кбит/сек
    Канал(ы) : 2 канала(ов)
    Расположение каналов : L R
    Частота : 48,0 КГц
    Разрешение : 16 бит
    Размер потока : 13,9 Мегабайт (12%)
    Заголовок : Russian
    Язык : Russian
    Дата кодирования : UTC 2009-12-14 21:59:16
    Дата пометки : UTC 2009-12-14 21:59:19
    Аудио #2
    Идентификатор : 3
    Формат : AAC
    Формат/Информация : Advanced Audio Codec
    Версия формата : Version 4
    Профайл формата : LC
    Параметры SBR формата : Нет
    Идентификатор кодека : 40
    Продолжительность : 12 м.
    Вид битрейта : Переменный
    Битрейт : 160 Кбит/сек
    Максимальный битрейт : 164 Кбит/сек
    Канал(ы) : 2 канала(ов)
    Расположение каналов : L R
    Частота : 48,0 КГц
    Разрешение : 16 бит
    Размер потока : 13,9 Мегабайт (12%)
    Заголовок : English
    Язык : English
    Дата кодирования : UTC 2009-12-14 21:59:18
    Дата пометки : UTC 2009-12-14 21:59:19
    После добавления файлов в iTunes ищите их в разделе Телешоу.11.01.10 г. ВНИМАНИЕ!!! Добавленна 16-ая серия - All Choked Up / Сыт по Горло, а так же исправленна 10 серия (дергалось изображение в конце). В iTunes, после добавления, ролики ищите в Телешоу. Прошу обратить внимание что в этой раздаче озвучка от - VSTeam Creative Group, а они озвучили пока только 16 серий. ТНТ озвучку добавлять не буду так как считаю что она хуже.
  • Сериалы для iPod, iPhone, iPad > Части тела / Nip Tuck - Сезон 6 [2009, драма, HDTVRip]
  • 19-Июн-2018 14:26

    Ranku

    Части тела / Nip Tuck - Сезон 6- Название: "Части тела"
    Оригинальное название: “Nip Tuck”
    Год выпуска: 2009
    Жанр: Драма
    Перевод: Двухголосый от "1001 cinema"
    Размер: ~200 мегабайт на серию-Режиссер: Грег Яйтанес, Элоди Кин, Райан Мэрфи, Крэйг Зиск и др.
    В ролях: Дилан Уолш, Джулиан МакМэйхон, Джон Хенсли, Валери Круз, Рома Маффиа, Бруно Кампос, Джоэли Ричардсон, Келли Карлсон, Джессалин Гилсиг-Описание: Шон МакНамара и Кристиан Трой – два талантливых пластических хирурга, которые делают красивых женщин безупречными в собственной частной клинике, расположенной в Майами. Операции стоят невероятно дорого, и клиентки бывают готовы на всё, чтобы задержать ускользающую красоту или её приумножить.
    Шон и Кристиан не только партнёры в одном бизнесе, но и друзья. Однако между ними часто возникают разногласия из-за разного отношения к жизни, к своему делу и к женщинам.
    Шон, более серьезный, старается полностью погрузиться в работу, чтобы отвлечься от проблем с женой и сыном-тинэйджером. Клятва Гиппократа не пустые слова для Шона, он работает самоотверженно, даже готов делать бесплатные операции жертвам пожаров и действительно нуждающимся. Эти благородные порывы Шона не находят отклика в сердце Кристиана, работающего исключительно ради денег и возможности завести интрижку с очередной пациенткой. Доллары, дамы и вино – вот что нужно Кристиану, и он пойдёт на всё, чтобы заполучить желаемое: на ложь, обман, измену, шантаж и даже... на убийство! Судьба готовит двум друзьям множество сюрпризов, встреч, неожиданных поворотов и открытий!
    Симпатичные врачи, сексапильные пациентки, красивая любовь на фоне дорогих интерьеров штата Флорида.-IMDB Rating: 8.5/10 (13,783 votes)-Качество: HDTVRip
    Формат: MP4
    Видео: 480x264; 24fps; h264; 512kbps
    Аудио: 48kHz; stereo; AAC; 128kbps-

    Содержание сезона

    Серия 1: Дон Хоберман / Don Hoberman
    Серия 2: Энигма / Enigma
    Серия 3: Бриджитт Рэинхольт / Briggitte Reinholt
    Серия 4: Дженни Джаггс / Jenny Juggs
    Серия 5: Эбигейл Салливан / Abigail Sullivan
    Серия 6: Алексис Стоун / Alexis Stone
    Серия 7: Алексис Стоун II / Alexis Stone II
    Серия 8: Лола Вогнер / Lola Wagner
    Серия 9: Бенни Андерсон / Benny Anderson
    Серия 10: Уесли Кловис / Wesley Clovis

    Скриншоты

    Сэмпл

    Сэмпл

    Тех. данные

    Video
    Count : 119
    Count of stream of this kind : 1
    Kind of stream : Video
    StreamKindID : 0
    ID : 1
    Format : AVC
    Format/Info : Advanced Video Codec
    Format/Url : http://developers.videolan.org/x264.html
    Format profile : Baseline@L3.0
    Format settings : 6 Ref Frames
    Format settings, CABAC : No
    Format settings, ReFrames : 6
    Codec ID : avc1
    Codec ID/Url : http://www.apple.com/quicktime/download/standalone.html
    Codec : AVC
    Codec : AVC
    Codec/Family : AVC
    Codec/Info : Advanced Video Codec
    Codec/Url : http://developers.videolan.org/x264.html
    Codec/CC : avc1
    Codec profile : Baseline@L3.0
    Codec settings : 6 Ref Frames
    Codec settings, CABAC : No
    Codec_Settings_RefFrames : 6
    Duration : 2513052
    Duration : 41mn 53s
    Duration : 41mn 53s 52ms
    Duration : 41mn 53s
    Duration : 00:41:53.052
    Bit rate mode : VBR
    Bit rate : 511920
    Bit rate : 512 Kbps
    Maximum bit rate : 1344336
    Maximum bit rate : 1344 Kbps
    Width : 480
    Width : 480 pixels
    Height : 272
    Height : 272 pixels
    Pixel Aspect Ratio : 1.000
    Display aspect ratio : 1.765
    Display aspect ratio : 16/9
    Frame rate mode : CFR
    Frame rate : 23.976
    Frame rate : 23.976 fps
    FrameCount : 60253
    Colorimetry : 4:2:0
    Scan type : Progressive
    Scan type : Progressive
    Interlacement : PPF
    Interlacement : Progressive
    Bits/(Pixel*Frame) : 0.164
    Stream size : 160810884
    Stream size : 153 MiB
    Stream size : 153 MiB
    Stream size : 153 MiB
    Stream size : 153 MiB
    Stream size : 153.4 MiB
    Audio
    Count : 102
    Count of stream of this kind : 1
    Kind of stream : Audio
    StreamKindID : 0
    ID : 2
    Format : AAC
    Format/Info : Advanced Audio Codec
    Format version : Version 4
    Format profile : LC
    Format settings, SBR : No
    Codec : A_AAC/MPEG4/LC
    Codec : AAC LC
    Codec/Family : AAC
    Codec/Info : AAC Low Complexity
    Codec/CC : 40
    Duration : 2513130
    Duration : 41mn 53s
    Duration : 41mn 53s 130ms
    Duration : 41mn 53s
    Duration : 00:41:53.130
    Bit rate mode : VBR
    Bit rate : 128984
    Bit rate : 129 Kbps
    Maximum bit rate : 189968
    Maximum bit rate : 190 Kbps
    Channel(s) : 2
    Channel(s) : 2 channels
    Channel positions : L R
    Sampling rate : 48000
    Sampling rate : 48.0 KHz
    SamplingCount : 120630240
    Resolution : 16
    Resolution : 16 bits
    Stream size : 40519595
    Stream size : 38.6 MiB
    Stream size : 39 MiB
    Stream size : 39 MiB
    Stream size : 38.6 MiB
    Stream size : 38.64 MiB
    Как закачать отдельный файл из торрента или докачать ранее пропущенные файлы торрента!-Скачать Части тела / Nip Tuck - Сезон 1
    Скачать Части тела / Nip Tuck - Сезон 2
    Скачать Части тела / Nip Tuck - Сезон 3
    Скачать Части тела / Nip Tuck - Сезон 4
    Скачать Части тела / Nip Tuck - Сезон 5
    Скачать Части тела / Nip Tuck - Сезон 7