Поиск Результатов поиска: 500

  • Иностранные мультфильмы > Гамби / Gumby 1 / Gumby: The Movie (Арт Клокей / Art Clokey) [1995, США, мультфильм, фантастика, приключения, семейный, DVDRip] AVO (Антон Алексеев)
  • 18-Сен-2017 18:16

    Ranku

    Гамби / Gumby 1 / Gumby: The Movie
    Страна: США
    Жанр: мультфильм, фантастика, приключения, семейный
    Продолжительность: 01:26:42
    Год выпуска: 1995
    Перевод: Авторский (одноголосый закадровый) Антон Алексеев
    Русские субтитры: нет
    Режиссёр: Арт Клокей / Art Clokey-Описание: Гамби вернулся! Гамби присоединяется к группе Clayboys, чтобы выступить на концерте, который принесет пользу местным фермерам. Но события приобретают неожиданный поворот, собака Гамби неожиданно реагирует на музыку, у нее идут слезы из жемчуга! Благосостояние превращается в бедствие, поскольку — это видят его заклятые враги и они изобретают сложную схему для похищения жемчуга… Сражение между героями заполнено поездами и самолетами, рыцарями и поединками, острыми ощущениями и кровопролитиями. Все в духе приключений классики Гамби. «Гамби в Кино» переносит нас в книги Тойланда, Камелота, и космоса Звездных Войн!-Качество: DVDRip
    Формат: AVI
    Видео: XviD MPEG-4, 576x432 (4:3), 25 fps, ~1000 kbps avg
    Аудио: AC3 Dolby Digital, 48 kHz, 2 ch, ~192.00 kbps [Rus]
    Субтитры: отсутствуют
    За оцифрованную с VHS дорожку благодарим - alenavova

    Подробные технические данные

    Общее
    Полное имя : E:\MULTFILMS\GUMBY\Gumby The Movie 1995.avi
    Формат : AVI
    Формат/Информация : Audio Video Interleave
    Размер файла : 712 Мбайт
    Продолжительность : 1 ч. 26 м.
    Общий поток : 1148 Кбит/сек
    Программа кодирования : VirtualDubMod 1.5.10.2 (build 2542/release)
    Библиотека кодирования : VirtualDubMod build 2542/release
    Видео
    Идентификатор : 0
    Формат : MPEG-4 Visual
    Профиль формата : Advanced Simple@L5
    Параметр BVOP формата : 1
    Параметр QPel формата : Нет
    Параметр GMC формата : Без точки перехода
    Параметр матрицы формата : Default (H.263)
    Идентификатор кодека : XVID
    Идентификатор кодека/Подсказка : XviD
    Продолжительность : 1 ч. 26 м.
    Битрейт : 946 Кбит/сек
    Ширина : 576 пикселей
    Высота : 432 пикселя
    Соотношение сторон : 4:3
    Частота кадров : 25,000 кадров/сек
    Цветовое пространство : YUV
    Субдискретизация насыщенности : 4:2:0
    Битовая глубина : 8 бит
    Тип развёртки : Прогрессивная
    Метод сжатия : С потерями
    Бит/(Пиксели*Кадры) : 0.152
    Размер потока : 587 Мбайт (82%)
    Библиотека кодирования : XviD 1.2.0.dev47 (UTC 2006-11-01)
    Аудио
    Идентификатор : 1
    Формат : AC-3
    Формат/Информация : Audio Coding 3
    Расширение режима : CM (complete main)
    Параметр Endianness формата : Big
    Идентификатор кодека : 2000
    Продолжительность : 1 ч. 26 м.
    Вид битрейта : Постоянный
    Битрейт : 192 Кбит/сек
    Каналы : 2 канала
    Расположение каналов : Front: L R
    Частота : 48,0 КГц
    Битовая глубина : 16 бит
    Метод сжатия : С потерями
    Размер потока : 119 Мбайт (17%)
    Выравнивание : Разделение по промежуткам
    Продолжительность промежутка : 40 мс. (1,00 видеокадр)
    Время предзагрузки промежутка : 500 мс.
  • Иностранные мультфильмы > Барби: Дримтопия. Фестиваль веселья / Barbie Dreamtopia: Festival of Fun (Ирэн Лэзер / Eran Lazar) [2017, приключения, мультфильм, DVB-AVC] Dub
  • 12-Сен-2017 08:51

    Ranku

    Барби: Дримтопия. Фестиваль веселья / Barbie Dreamtopia: Festival of Fun
    Год выпуска: 2017
    Страна: США, Mattel Creations
    Жанр: приключения, мультфильм
    Продолжительность: 00:40:33
    Перевод: Профессиональный (дублированный)
    Режиссёр: Ирэн Лэзер / Eran Lazar
    Описание: Новый мультфильм о приключениях Барби и её сестренки Челси, в котором они путешествуют по волшебным мирам воображения.
    Дримтопия - это волшебный мир, созданный воображением Челси, младшей сестрёнки Барби. Эта страна состоит из прекрасных лесов, гор, бухт и дворцов, а населяют ее красивые принцессы, феи и сказочные персонажи. На этот раз девочки запланировали провести чудесный праздник. Присоединяйтесь к Челси и Барби в их добрых приключениях в Дримтопии - мире фантазий, в котором возможно всё!
    Доп. информация:

    Трансляция спутникового канала:

    Релиз группы:
    Семпл: http://yadi.sk/i/Of4KKfKr3Mk7eo
    Качество видео: DVB
    Формат видео: MPEG-TS
    Видео: MPEG4 Video (H264), 720x576@1047x576 (16:9), анаморф, 25 fps, 2100 kbps
    Аудио: MPEG Audio, 2 сh, 48 kHz, 192 kbps

    MediaInfo

    G:\Барби. Дримтопия. Фестиваль веселья. (2017)_DVB by SLuMeP.ts
    General #1
    ID : 1 (0x1)
    Complete name : G:\Барби. Дримтопия. Фестиваль веселья. (2017)_DVB by SLuMeP.ts
    Format : MPEG-TS
    File size : 691 MiB
    Duration : 40mn 33s
    Overall bit rate mode : Variable
    Overall bit rate : 2 381 Kbps
    Video #222
    ID : 222 (0xDE)
    Menu ID : 822 (0x336)
    Format : AVC
    Format/Info : Advanced Video Codec
    Format profile : High@L3.0
    Format settings, CABAC : Yes
    Format settings, ReFrames : 4 frames
    Codec ID : 27
    Duration : 40mn 33s
    Bit rate : 2 069 Kbps
    Width : 720 pixels
    Height : 576 pixels
    Display aspect ratio : 16:9
    Frame rate : 25.000 fps
    Standard : Component
    Color space : YUV
    Chroma subsampling : 4:2:0
    Bit depth : 8 bits
    Scan type : Interlaced
    Scan order : Top Field First
    Bits/(Pixel*Frame) : 0.200
    Stream size : 600 MiB (87%)
    Color primaries : BT.601 PAL
    Transfer characteristics : BT.470 System B, BT.470 System G
    Matrix coefficients : BT.601
    Audio #322
    ID : 322 (0x142)
    Menu ID : 822 (0x336)
    Format : MPEG Audio
    Format version : Version 1
    Format profile : Layer 2
    Codec ID : 3
    Duration : 40mn 33s
    Bit rate mode : Constant
    Bit rate : 192 Kbps
    Channel(s) : 2 channels
    Sampling rate : 48.0 KHz
    Compression mode : Lossy
    Stream size : 55.7 MiB (8%)
    Language : Russian

    Скриншоты


  • Иностранные мультфильмы > Подводная эра / Deep (Джулио Сото Гарпид / Julio Soto Gurpide) [2017, США, Испания, Бельгия, Мультфильм, комедия, приключения, семейный, WEB-DLRip] Dub
  • 12-Сен-2017 08:50

    Ranku

    Подводная эра / Deep- Страна: США, Испания, Бельгия
    Жанр: Мультфильм, комедия, приключения, семейный
    Продолжительность: 01:32:38
    Год выпуска: 2017
    Перевод: Профессиональный (дублированный)
    Русские субтитры: нет-Режиссёр: Джулио Сото Гарпид / Julio Soto Gurpide-Роли озвучивали: Джастин Фелбингер, Линдси Алена, Стивен Хьюз, Льюис Маклауд, Джесс Харнелл, Фил ЛаМарр, Джефф Беннетт, Дэйв Фенной, Боб Берген, Джен Тейлор
    Описание: К 2100 году люди покинули нашу планету. Но в глубокой впадине на самом дне океана продолжает жить колония удивительных морских существ. Среди них любопытный глубоководный осьминожек Дип и двое его друзей — пугливый удильщик Иво и импульсивная креветка Элис. Однако, когда их дому угрожает опасность, мудрый дедушка Дипа, гигантский осьминог Кракен, отправляет их за помощью на другой конец океана. Друзей и присоединившуюся к ним стеснительную мурену Мойру ждет целое море опасных и невероятных приключений…- -Качество: WEB-DLRip
    Формат: AVI
    Видео: 720x384 (1.85:1), 23.976 fps, XviD, 1910 Kbps, 0.28 Bits/Pixel
    Аудио: 48 kHz, AC3 Dolby Digital, 2 ch, 192 Kbps
    Субтитры: отсутствуют-Релиз от: -

    MI

    General
    Complete name : Downloads\Podvodnaja.era.2017.WEB-DLRip.ExKinoRay.avi
    Format : AVI
    Format/Info : Audio Video Interleave
    File size : 1.37 GiB
    Duration : 1h 32mn
    Overall bit rate : 2 111 Kbps
    Writing application : VirtualDubMod 1.5.10.2 (build 2540/release)
    Writing library : VirtualDubMod build 2540/release
    Video #0
    ID : 0
    Format : MPEG-4 Visual
    Format profile : Advanced Simple@L5
    Format settings, BVOP : 1
    Format settings, QPel : No
    Format settings, GMC : No warppoints
    Format settings, Matrix : Custom
    Codec ID : XVID
    Codec ID/Hint : XviD
    Duration : 1h 32mn
    Bit rate : 1 910 Kbps
    Width : 720 pixels
    Height : 384 pixels
    Display aspect ratio : 1.85:1
    Frame rate : 23.976 fps
    Color space : YUV
    Chroma subsampling : 4:2:0
    Bit depth : 8 bits
    Scan type : Progressive
    Compression mode : Lossy
    Bits/(Pixel*Frame) : 0.288
    Stream size : 1.24 GiB (90%)
    Writing library : XviD 1.2.1 (UTC 2008-12-04)
    Audio #1
    ID : 1
    Format : AC-3
    Format/Info : Audio Coding 3
    Mode extension : CM (complete main)
    Format settings, Endianness : Big
    Codec ID : 2000
    Duration : 1h 32mn
    Bit rate mode : Constant
    Bit rate : 192 Kbps
    Channel(s) : 2 channels
    Channel positions : Front: L R
    Sampling rate : 48.0 KHz
    Bit depth : 16 bits
    Compression mode : Lossy
    Stream size : 127 MiB (9%)
    Alignment : Split accross interleaves
    Interleave, duration : 42 ms (1.00 video frame)
    Interleave, preload duration : 500 ms

    Скриншоты

  • Иностранные мультфильмы > Подводная эра / Deep (Джулио Сото Гарпид / Julio Soto Gurpide) [2017, США, Испания, Бельгия, мультфильм, комедия, приключения, семейный, WEB-DLRip] Dub (iTunes)
  • 12-Сен-2017 08:50

    Ranku

    Подводная эра / Deep
    Страна: США, Испания, Бельгия
    Жанр: мультфильм, комедия, приключения, семейный
    Год выпуска: 2017
    Продолжительность: 01:28:24
    Перевод: Профессиональный (дублированный) | iTunes
    Субтитры: нет
    Оригинальная аудиодорожка: нет-Режиссер:
    Джулио Сото Гарпид / Julio Soto Gurpide-В ролях:
    Джастин Фелбингер, Линдси Алена, Стивен Хьюз, Льюис Маклауд, Джесс Харнелл, Фил ЛаМарр, Джефф Беннетт, Дэйв Фенной, Боб Берген, Джен Тейлор-Описание:
    Сюжет мультфильма развивается в далеком будущем, когда в результате глобальной экологической катастрофы, случившейся по вине человека, вся Земля ушла под воду. Катастрофа сказалась и на обитателях морских глубин. Кракену - разумному осьминогу-гримпотевтису удалось спастись самому и спасти некоторых обитателей. Найдя безопасное место, и, укрывшись там, они смогли выжить. И все было бы ничего, если бы главные герои - молодой осьминог Дип - внук Кракена и его друзья - рыба-удильщик Иво и креветка Эллис своими шалостями не подвергли смертельной опасности жителей этого места, всех их просто замуровало. И, кажется, спасения ждать неоткуда, но мудрый Кракен знает, что у них остался один шанс. Вся их надежда на белого кита Нейтана, способного помочь. Теперь компания нашкодивших друзей должна отправиться на поиски Нейтана, следуя ориентирам, полученным от Кракена.-Качество видео: WEB-DLRip
    Формат видео: AVI
    Видео: 688x368 (1.87:1), 25 fps, XviD build 73 ~1037 kbps avg, 0.16 bit/pixel
    Аудио: 48 kHz, MPEG Layer 3, 2 ch, ~128.00 kbps avg-Скачать сэмпл-

    MediaInfo

    Format                      : AVI
    Format/Info                 : Audio Video Interleave
    File size                   : 743 MiB
    Duration                    : 1 h 28 min
    Overall bit rate            : 1 175 kb/s
    Writing application         : VirtualDubMod 1.5.10.3 | www.virtualdub-fr.org || (build 2550/release)
    Writing library             : VirtualDubMod build 2550/release
    Video
    ID                          : 0
    Format                      : MPEG-4 Visual
    Format profile              : Advanced Simple@L5
    Format settings, BVOP       : 1
    Format settings, QPel       : No
    Format settings, GMC        : No warppoints
    Format settings, Matrix     : Custom
    Codec ID                    : XVID
    Codec ID/Hint               : XviD
    Duration                    : 1 h 28 min
    Bit rate                    : 1 038 kb/s
    Width                       : 688 pixels
    Height                      : 368 pixels
    Display aspect ratio        : 1.85:1
    Frame rate                  : 25.000 FPS
    Color space                 : YUV
    Chroma subsampling          : 4:2:0
    Bit depth                   : 8 bits
    Scan type                   : Progressive
    Compression mode            : Lossy
    Bits/(Pixel*Frame)          : 0.164
    Stream size                 : 656 MiB (88%)
    Writing library             : XviD 73
    Audio
    ID                          : 1
    Format                      : MPEG Audio
    Format version              : Version 1
    Format profile              : Layer 3
    Codec ID                    : 55
    Codec ID/Hint               : MP3
    Duration                    : 1 h 28 min
    Bit rate mode               : Constant
    Bit rate                    : 128 kb/s
    Channel(s)                  : 2 channels
    Sampling rate               : 48.0 kHz
    Compression mode            : Lossy
    Stream size                 : 80.9 MiB (11%)
    Alignment                   : Aligned on interleaves
    Interleave, duration        : 40  ms (1.00 video frame)
    Interleave, preload duratio : 504  ms
    Writing library             : LAME3.99r
    Encoding settings           : -m s -V 4 -q 2 -lowpass 17 -b 128

    Скриншоты

  • Иностранные мультфильмы > Подводная эра / Deep (Джулио Сото Гарпид / Julio Soto Gurpide) [2017, США, Испания, Бельгия, мультфильм, комедия, приключения, семейный, WEB-DLRip-AVC] Dub
  • 12-Сен-2017 08:49

    Ranku

    -Подводная эра / Deep- -Страна: США, Испания, Бельгия
    Жанр: мультфильм, комедия, приключения, семейный
    Год выпуска: 2017
    Продолжительность: 01:32:38-Перевод: Профессиональный (дублированный) iTunes
    Субтитры: нет
    Оригинальная аудиодорожка: нет-Режиссёр: Джулио Сото Гарпид / Julio Soto Gurpide-Роли озвучивали: Джастин Фелбингер, Линдси Алена, Стивен Хьюз, Льюис Маклауд, Джесс Харнелл, Фил ЛаМарр, Джефф Беннетт, Дэйв Фенной, Боб Берген, Джен Тейлор-Описание: Сюжет мультфильма развивается в далеком будущем, когда в результате глобальной экологической катастрофы, случившейся по вине человека, вся Земля ушла под воду. Катастрофа сказалась и на обитателях морских глубин. Кракену - разумному осьминогу-гримпотевтису удалось спастись самому и спасти некоторых обитателей. Найдя безопасное место, и, укрывшись там, они смогли выжить. И все было бы ничего, если бы главные герои - молодой осьминог Дип - внук Кракена и его друзья - рыба-удильщик Иво и креветка Эллис своими шалостями не подвергли смертельной опасности жителей этого места, всех их просто замуровало. И, кажется, спасения ждать неоткуда, но мудрый Кракен знает, что у них остался один шанс. Вся их надежда на белого кита Нейтана, способного помочь. Теперь компания нашкодивших друзей должна отправиться на поиски Нейтана, следуя ориентирам, полученным от Кракена.- - -Качество: WEB-DLRip-AVC / Deep.2017.WEB-DL.1080p
    Формат: MKV-Видео: MPEG-4 AVC, 1024x552 (1.85:1), 23.976 fps, ~1862 kbps avg, 0.137 bit/pixel
    Аудио: 48 kHz, AC3 Dolby Digital, 3/2 (L,C,R,l,r) + LFE ch, ~384 kbps avg-

    MediaInfo

    Complete name : D:\Раздачи\Подводная эра (2017) WEB-DLRip-AVC_ivanes20031987.mkv
    Format : Matroska
    Format version : Version 2
    File size : 1.45 GiB
    Duration : 1 h 32 min
    Overall bit rate : 2 246 kb/s
    Encoded date : UTC 2017-09-06 20:12:00
    Writing application : mkvmerge v7.8.0 ('River Man') 32bit built on Apr 3 2015 12:11:22
    Writing library : libebml v1.3.1 + libmatroska v1.4.2
    Video
    ID : 1
    Format : AVC
    Format/Info : Advanced Video Codec
    Format profile : High@L4.1
    Format settings, CABAC : Yes
    Format settings, RefFrames : 12 frames
    Codec ID : V_MPEG4/ISO/AVC
    Duration : 1 h 32 min
    Bit rate : 1 862 kb/s
    Width : 1 024 pixels
    Height : 552 pixels
    Display aspect ratio : 1.85:1
    Frame rate mode : Constant
    Frame rate : 23.976 (24000/1001) FPS
    Color space : YUV
    Chroma subsampling : 4:2:0
    Bit depth : 8 bits
    Scan type : Progressive
    Bits/(Pixel*Frame) : 0.137
    Stream size : 1.18 GiB (81%)
    Writing library : x264 core 152 r2851kMod ba24899
    Encoding settings : cabac=1 / ref=12 / deblock=1:-2:-1 / analyse=0x3:0x113 / me=umh / subme=10 / psy=1 / fade_compensate=0.00 / psy_rd=1.00:0.00 / mixed_ref=1 / me_range=32 / chroma_me=1 / trellis=2 / 8x8dct=1 / cqm=0 / deadzone=21,11 / fast_pskip=0 / chroma_qp_offset=-2 / threads=12 / lookahead_threads=3 / sliced_threads=0 / nr=0 / decimate=0 / interlaced=0 / bluray_compat=0 / constrained_intra=0 / bframes=12 / b_pyramid=2 / b_adapt=2 / b_bias=0 / direct=1 / weightb=1 / open_gop=0 / weightp=2 / keyint=240 / keyint_min=23 / scenecut=40 / intra_refresh=0 / rc_lookahead=40 / rc=2pass / mbtree=0 / bitrate=1862 / ratetol=1.0 / qcomp=0.60 / qpmin=0 / qpmax=69 / qpstep=4 / cplxblur=20.0 / qblur=0.5 / vbv_maxrate=50000 / vbv_bufsize=62500 / nal_hrd=none / filler=0 / ip_ratio=1.40 / pb_ratio=1.30 / aq=1:1.00
    Default : Yes
    Forced : No
    Audio
    ID : 2
    Format : AC-3
    Format/Info : Audio Coding 3
    Format settings, Endianness : Big
    Codec ID : A_AC3
    Duration : 1 h 32 min
    Bit rate mode : Constant
    Bit rate : 384 kb/s
    Channel(s) : 6 channels
    Channel positions : Front: L C R, Side: L R, LFE
    Sampling rate : 48.0 kHz
    Frame rate : 31.250 FPS (1536 SPF)
    Bit depth : 16 bits
    Compression mode : Lossy
    Stream size : 254 MiB (17%)
    Service kind : Complete Main
    Default : Yes
    Forced : No

    Скриншоты

  • Иностранные мультфильмы > Смурфики: Затерянная деревня / Smurfs: The Lost Village (Келли Эсбёри / Kelly Asbury) [2017, США, мультфильм, фэнтези, комедия, приключения, семейный, BDRip-AVC] Dub
  • 12-Сен-2017 08:47

    Ranku

    -Смурфики: Затерянная деревня / Smurfs: The Lost Village
    «Кто здесь?»- -Страна: США
    Жанр: мультфильм, фэнтези, комедия, приключения, семейный
    Год выпуска: 2017
    Продолжительность: 01:29:46-Перевод: Профессиональный (дублированный) iTunes
    Субтитры: нет
    Оригинальная аудиодорожка: нет-Режиссёр: Келли Эсбёри / Kelly Asbury-Роли озвучивали: Ариэль Уинтер, Джо Манганьелло, Мишель Родригес, Джулия Робертс, Элли Кемпер, Мэнди Пэтинкин, Рэйн Уилсон, Деми Ловато, Джейк Джонсон, Джек МакБрайер-Описание: Смурфетта и её лучшие друзья Умник, Растяпа и Силач, отправляются на поиски таинственной затерянной деревни, стремясь опередить злобного волшебника Гаргамеля. В пути смурфиков ожидают невероятные опасности и головокружительные приключения, но игра стоит свеч, ведь в конечном итоге герои смогут разгадать самую большую загадку в истории своего существования!- - -Качество: BDRip-AVC / Smurfs.The.Lost.Village.2017.BDREMUX.1080p.ExKinoRay
    Формат: MKV-Видео: MPEG-4 AVC, 1024x552 ( 1.85:1), 23.976 fps, ~1933 kbps avg, 0.143 bit/pixel
    Аудио: 48 kHz, AC3 Dolby Digital, 3/2 (L,C,R,l,r) + LFE ch, ~384 kbps avg-

    MediaInfo

    Complete name : D:\Раздачи\Смурфики Затерянная деревня (2017) BDRip-AVC_ivanes20031987.mkv
    Format : Matroska
    Format version : Version 2
    File size : 1.45 GiB
    Duration : 1 h 29 min
    Overall bit rate : 2 319 kb/s
    Encoded date : UTC 2017-09-09 17:21:34
    Writing application : mkvmerge v4.4.0 ('Die Wiederkehr') сборка от Jan 3 2011 21:40:45
    Writing library : libebml v1.0.0 + libmatroska v1.0.0
    Cover : Yes
    Attachments : cover.png
    Video
    ID : 1
    Format : AVC
    Format/Info : Advanced Video Codec
    Format profile : High@L4.1
    Format settings, CABAC : Yes
    Format settings, RefFrames : 12 frames
    Codec ID : V_MPEG4/ISO/AVC
    Duration : 1 h 29 min
    Bit rate : 1 933 kb/s
    Width : 1 024 pixels
    Height : 552 pixels
    Display aspect ratio : 1.85:1
    Frame rate mode : Constant
    Frame rate : 23.976 (24000/1001) FPS
    Color space : YUV
    Chroma subsampling : 4:2:0
    Bit depth : 8 bits
    Scan type : Progressive
    Bits/(Pixel*Frame) : 0.143
    Stream size : 1.18 GiB (81%)
    Writing library : x264 core 152 r2851kMod ba24899
    Encoding settings : cabac=1 / ref=12 / deblock=1:-3:-3 / analyse=0x3:0x113 / me=umh / subme=10 / psy=1 / fade_compensate=0.00 / psy_rd=1.00:0.00 / mixed_ref=1 / me_range=32 / chroma_me=1 / trellis=2 / 8x8dct=1 / cqm=0 / deadzone=21,11 / fast_pskip=0 / chroma_qp_offset=-2 / threads=12 / lookahead_threads=3 / sliced_threads=0 / nr=0 / decimate=0 / interlaced=0 / bluray_compat=0 / constrained_intra=0 / bframes=11 / b_pyramid=2 / b_adapt=2 / b_bias=0 / direct=1 / weightb=1 / open_gop=0 / weightp=2 / keyint=240 / keyint_min=23 / scenecut=40 / intra_refresh=0 / rc_lookahead=40 / rc=2pass / mbtree=0 / bitrate=1933 / ratetol=1.0 / qcomp=0.60 / qpmin=0 / qpmax=69 / qpstep=4 / cplxblur=20.0 / qblur=0.5 / vbv_maxrate=50000 / vbv_bufsize=62500 / nal_hrd=none / filler=0 / ip_ratio=1.40 / pb_ratio=1.30 / aq=1:1.00
    Default : Yes
    Forced : No
    Audio
    ID : 2
    Format : AC-3
    Format/Info : Audio Coding 3
    Format settings, Endianness : Big
    Codec ID : A_AC3
    Duration : 1 h 29 min
    Bit rate mode : Constant
    Bit rate : 384 kb/s
    Channel(s) : 6 channels
    Channel positions : Front: L C R, Side: L R, LFE
    Sampling rate : 48.0 kHz
    Frame rate : 31.250 FPS (1536 SPF)
    Bit depth : 16 bits
    Compression mode : Lossy
    Stream size : 247 MiB (17%)
    Service kind : Complete Main
    Default : Yes
    Forced : No

    Скриншоты

  • Иностранные мультфильмы > Планета людей / People: A Musical Celebration (Владлен Барбэ, Алексей Алексеев, Джошуа М. Грин / Joshua M. Greene, Светлана Гроссу, Олег Кузовков, Дмитрий Наумов, Игорь Вейштагин, Валерий Жирнов) [1995, США, Россия, музыкальный, WEB-DL 480p] DVO
  • 03-Сен-2017 11:41

    Ranku

    Планета людей / People: A Musical Celebration- Страна: США, Россия
    Жанр: музыкальный мультфильм, семейный
    Год выпуска: 1995
    Продолжительность: 00:48:47-Перевод: Профессиональный (двухголосый закадровый) + перевод песен субтитрами
    Субтитры: русские (только на песни)-Режиссеры: Владлен Барбэ, Алексей Алексеев, Джошуа М. Грин / Joshua M. Greene, Светлана Гроссу, Олег Кузовков, Дмитрий Наумов, Игорь Вейштагин, Валерий Жирнов
    Роли озвучивали: Хьюм Кронин, Саша Гроним, Джеймс Эрл Джонс, Даи Даи Минг, Офелия Эссьен-Описание: По мотивам книги Питера Спайера. Дедушка с любимой внучкой отправляется в волшебное путешествие, открывая для себя удивительный мир людей. Ребенок с радостью узнает, что самое красивое зрелище на свете - это наша планета, и понимает, что человек - самая интересная загадка.-Доп. информация: Звук с кассеты оцифровал bora86bora, синхронизировал под WEB-DL xfiles.- | Релиз: -Семпл: http://sendfile.su/1359081-Тип релиза: WEB-DL 480p
    Формат: MKV
    Видео: 640x480 (4:3), 29.970 fps, AVC, ~1019 Kbps, 0.111 bits/pixel
    Аудио #1: Русский, 48.0 KHz, AC3, 2 ch, 224 Kbps
    Аудио #2: English, 48.0 KHz, AC3+, 2 ch, 224 Kbps

    MediaInfo

    General
    Unique ID : 243022835915437523812800991496815095066 (0xB6D47EE546298B8A81EF340A52D5AD1A)
    Complete name : People.A.Musical.Celebration.1995.WEB-DL.480p-RUTRACKER.mkv
    Format : Matroska
    Format version : Version 4 / Version 2
    File size : 522 MiB
    Duration : 48 min 47 s
    Overall bit rate mode : Variable
    Overall bit rate : 1 497 kb/s
    Movie name : People: A Musical Celebration 1995 WEB-DL 480p RUTRACKER
    Encoded date : UTC 2017-09-02 12:31:08
    Writing application : mkvmerge v8.3.0 ('Over the Horizon') 64bit
    Writing library : libebml v1.3.1 + libmatroska v1.4.2
    Video
    ID : 1
    Format : AVC
    Format/Info : Advanced Video Codec
    Format profile : Main@L3
    Format settings, CABAC : Yes
    Format settings, RefFrames : 5 frames
    Codec ID : V_MPEG4/ISO/AVC
    Duration : 48 min 47 s
    Bit rate mode : Variable
    Bit rate : 1 019 kb/s
    Maximum bit rate : 1 800 kb/s
    Width : 640 pixels
    Height : 480 pixels
    Display aspect ratio : 4:3
    Frame rate mode : Constant
    Frame rate : 29.970 (30000/1001) FPS
    Color space : YUV
    Chroma subsampling : 4:2:0
    Bit depth : 8 bits
    Scan type : Progressive
    Bits/(Pixel*Frame) : 0.111
    Stream size : 356 MiB (68%)
    Writing library : x264 core 148 r2623 d5b2374
    Encoding settings : cabac=1 / ref=5 / deblock=1:-1:-1 / analyse=0x1:0x131 / me=umh / subme=10 / psy=1 / psy_rd=1.00:0.15 / mixed_ref=1 / me_range=24 / chroma_me=1 / trellis=2 / 8x8dct=0 / cqm=0 / deadzone=21,11 / fast_pskip=1 / chroma_qp_offset=-3 / threads=15 / lookahead_threads=2 / sliced_threads=0 / nr=150 / decimate=1 / interlaced=0 / bluray_compat=0 / constrained_intra=0 / bframes=8 / b_pyramid=2 / b_adapt=2 / b_bias=0 / direct=3 / weightb=1 / open_gop=0 / weightp=2 / keyint=150 / keyint_min=76 / scenecut=40 / intra_refresh=0 / rc_lookahead=150 / rc=crf / mbtree=1 / crf=22.0 / qcomp=0.60 / qpmin=0 / qpmax=69 / qpstep=4 / vbv_maxrate=1800 / vbv_bufsize=7000 / crf_max=0.0 / nal_hrd=vbr / filler=0 / ip_ratio=1.40 / aq=3:1.00
    Language : English
    Default : Yes
    Forced : No
    Color range : Limited
    Color primaries : BT.709
    Transfer characteristics : BT.709
    Matrix coefficients : BT.709
    Audio #1
    ID : 2
    Format : AC-3
    Format/Info : Audio Coding 3
    Format settings, Endianness : Big
    Codec ID : A_AC3
    Duration : 48 min 47 s
    Bit rate mode : Constant
    Bit rate : 224 kb/s
    Channel(s) : 2 channels
    Channel positions : Front: L R
    Sampling rate : 48.0 kHz
    Frame rate : 31.250 FPS (1536 SPF)
    Bit depth : 16 bits
    Compression mode : Lossy
    Stream size : 78.2 MiB (15%)
    Language : Russian
    Service kind : Complete Main
    Default : Yes
    Forced : No
    Audio #2
    ID : 3
    Format : E-AC-3
    Format/Info : Enhanced Audio Coding 3
    Format settings, Endianness : Big
    Codec ID : A_EAC3
    Duration : 48 min 47 s
    Bit rate mode : Constant
    Bit rate : 224 kb/s
    Channel(s) : 2 channels
    Channel positions : Front: L R
    Sampling rate : 48.0 kHz
    Frame rate : 187.500 FPS (256 SPF)
    Compression mode : Lossy
    Stream size : 78.2 MiB (15%)
    Language : English
    Service kind : Complete Main
    Default : No
    Forced : No
    Text
    ID : 4
    Format : UTF-8
    Codec ID : S_TEXT/UTF8
    Codec ID/Info : UTF-8 Plain Text
    Title : Forced
    Language : Russian
    Default : Yes
    Forced : No
  • Иностранные мультфильмы > Заячья школа / Rabbit school (Уте фон Мюнхов-Поль) [2017, Германия, Мультфильм, семейный, WEB-DLRip] Dub
  • 03-Сен-2017 11:41

    Ranku

    Заячья школа / Rabbit school

    «По уши в приключениях!»
    - Страна: Германия
    Жанр: Мультфильм, семейный
    Продолжительность: 01:12:33
    Год выпуска: 2017
    Перевод: Профессиональный (дублированный)
    Русские субтитры: нет-Режиссёр: Уте фон Мюнхов-Поль-Роли озвучивали: Ноа Леви, Зента Бергер, Фридрих фон Тун, Дженни Мелина Витец, Макс Богут, Бен Боксберг, Юля Бёве, Дирк Петрик, Константин фон Ящерофф, Тим Сэндер-Описание: Макс, любитель городской суеты и молодежных развлечений, попадает туда, где ему совсем не место — в старомодную заячью школу. Но чем дольше он здесь находится, тем больше узнает о чудесном светлом празднике, ценности дружбы и собственном предназначении.- -Качество: WEB-DLRip
    Формат: AVI
    Видео: 704x384 (1.85:1), 25.000 fps, XviD build 73, 2308 Kbps, 0.34 bit/pixel
    Аудио: 48 kHz, AC3 Dolby Digital, 3/2 (L,C,R,l,r) + LFE ch, 384 Kbps [iTunes]
    Субтитры: отсутствуют-Релиз от: -

    MI

    General
    Complete name : Downloads\Zayachya.skola.2017.WEB-DLRip.MegaPeer.avi
    Format : AVI
    Format/Info : Audio Video Interleave
    File size : 1.37 GiB
    Duration : 1h 12mn
    Overall bit rate : 2 701 Kbps
    Writing application : VirtualDubMod 1.5.10.2 (build 2540/release)
    Writing library : VirtualDubMod build 2540/release
    Video #0
    ID : 0
    Format : MPEG-4 Visual
    Format profile : Advanced Simple@L5
    Format settings, BVOP : 1
    Format settings, QPel : No
    Format settings, GMC : No warppoints
    Format settings, Matrix : Custom
    Codec ID : XVID
    Codec ID/Hint : XviD
    Duration : 1h 12mn
    Bit rate : 2 308 Kbps
    Width : 704 pixels
    Height : 384 pixels
    Display aspect ratio : 1.85:1
    Frame rate : 25.000 fps
    Color space : YUV
    Chroma subsampling : 4:2:0
    Bit depth : 8 bits
    Scan type : Progressive
    Compression mode : Lossy
    Bits/(Pixel*Frame) : 0.341
    Stream size : 1.17 GiB (85%)
    Writing library : XviD 73
    Audio #1
    ID : 1
    Format : AC-3
    Format/Info : Audio Coding 3
    Mode extension : CM (complete main)
    Format settings, Endianness : Big
    Codec ID : 2000
    Duration : 1h 12mn
    Bit rate mode : Constant
    Bit rate : 384 Kbps
    Channel(s) : 6 channels
    Channel positions : Front: L C R, Side: L R, LFE
    Sampling rate : 48.0 KHz
    Bit depth : 16 bits
    Compression mode : Lossy
    Stream size : 199 MiB (14%)
    Alignment : Split accross interleaves
    Interleave, duration : 40 ms (1.00 video frame)
    Interleave, preload duration : 500 ms

    Скриншоты

  • Иностранные мультфильмы > Джек в стране чудес / Jack to Mame no Ki (Гисабуро Сугии / Gisaburo Sugii) [1974, Япония, приключения, семейный, музыкальный, VHSRip] [Советская прокатная копия] Dub (Довженко)
  • 30-Авг-2017 08:35

    Ranku

    Джек в стране чудес / Jack to Mame no Ki / ジャックと豆の木 [Советская прокатная копия]- Страна: Япония
    Жанр: приключения, семейный, музыкальный
    Год выпуска: 1974
    Продолжительность: 01:27:17-Перевод: Профессиональный (дублированный) - Киностудия им. А. Довженко
    Субтитры: нет-Режиссер: Гисабуро Сугии / Gisaburo Sugii / 杉井ギサブロー , 杉井儀三郎- | Релиз: -Описание: Вместо того, чтобы продать единственное имущество их бедной семьи — корову, которая больше не дает молока, Джек умудряется поменять ее на 5 волшебных бобов. Раздосадованная мать выбрасывает бесполезные бобы. Но за ночь они вырастают до небес и Джек вскарабкивается по стеблю вместе со своим верным псом Кросби.
    Там за облаками в огромном замке он встречает прекрасную принцессу Маргарет, которая, околдованная чарами злой ведьмы Гекубы, думает, что влюблена в туповатого, злобного и отвратительного великана Тьюлипа, сына Гекубы.
    С помощью обитателей замка, превращенных злой ведьмой в мышей, Джек находит сказочную сокровищницу и разрабатывает дерзкий план — сокрушить колдовские силы Гекубы и вернуться домой с богатством.-Семпл: http://sendfile.su/1357624-Тип релиза: VHSRip
    Контейнер: MPG
    Видео: 720x576 (4:3) @ 768x576, 25.000 fps, MPEG-2 Video, ~6171 Kbps, 0.595 bits/pixel
    Аудио: Русский, 48.0 KHz, AC3, 2 ch, 256 Kbps

    MediaInfo

    General
    Complete name : Джек в стране чудес 1974 Dub Довженко.mpg
    Format : MPEG-PS
    File size : 4.00 GiB
    Duration : 1 h 27 min
    Overall bit rate mode : Variable
    Overall bit rate : 6 558 kb/s
    Video
    ID : 224 (0xE0)
    Format : MPEG Video
    Format version : Version 2
    Format profile : Main@Main
    Format settings, BVOP : Yes
    Format settings, Matrix : Default
    Format settings, GOP : M=3, N=12
    Format settings, picture structure : Frame
    Duration : 1 h 27 min
    Bit rate mode : Variable
    Bit rate : 6 171 kb/s
    Maximum bit rate : 9 800 kb/s
    Width : 720 pixels
    Height : 576 pixels
    Display aspect ratio : 4:3
    Frame rate : 25.000 FPS
    Standard : PAL
    Color space : YUV
    Chroma subsampling : 4:2:0
    Bit depth : 8 bits
    Scan type : Interlaced
    Scan order : Top Field First
    Compression mode : Lossy
    Bits/(Pixel*Frame) : 0.595
    Time code of first frame : 00:00:00:00
    Time code source : Group of pictures header
    GOP, Open/Closed : Open
    GOP, Open/Closed of first frame : Closed
    Stream size : 3.76 GiB (94%)
    Color primaries : BT.601 PAL
    Transfer characteristics : BT.470 System B, BT.470 System G
    Matrix coefficients : BT.470 System B, BT.470 System G
    Audio
    ID : 189 (0xBD)-128 (0x80)
    Format : AC-3
    Format/Info : Audio Coding 3
    Format settings, Endianness : Big
    Muxing mode : DVD-Video
    Duration : 1 h 27 min
    Bit rate mode : Constant
    Bit rate : 256 kb/s
    Channel(s) : 2 channels
    Channel positions : Front: L R
    Sampling rate : 48.0 kHz
    Frame rate : 31.250 FPS (1536 SPF)
    Bit depth : 16 bits
    Compression mode : Lossy
    Stream size : 160 MiB (4%)
    Service kind : Complete Main
  • Иностранные мультфильмы > Жил-был кот / Rudolf The Black Cat (Микинори Сакакибара / Mikinori Sakakibara, Кунихико Юяма / Kunihiko Yuyama) [2016, Япония, Канада, мультфильм, комедия, приключения, HDRip] Dub
  • 26-Авг-2017 17:30

    Ranku

    Жил-был кот / Rudolf The Black Cat
    Страна: Япония, Канада
    Жанр: мультфильм, комедия, приключения
    Год выпуска: 2016
    Продолжительность: 01:28:39
    Перевод: Профессиональный (дублированный)
    Субтитры: нет
    Оригинальная аудиодорожка: нет-Режиссер:
    Микинори Сакакибара / Mikinori Sakakibara, Кунихико Юяма / Kunihiko Yuyama-В ролях:
    Мао Иноуэ, Рёхэй Судзуки, Норито Ясима, Арата Фурута, Сандаю Докумамуси, Нана Мидзуки, Рио Сасаки, Юка Тэрасаки, Акио Оцука-Описание:
    История маленького чёрного котёнка с гордым именем Рудольф, жившего счастливо и спокойно ровно до тех пор, пока по роковой случайности он не оказался в неизвестном большом городе. Здесь герою придётся выживать без ласки и заботы хозяев, а ведь раньше он был твёрдо убежден, что всегда будет в полной безопасности.
    Блуждая по улицам незнакомого города, Рудо встречает взрослого полосатого кота, нагоняющего ужас на всю округу. Он становится для малыша наставником, учит жизни на улице и помогает обрести новых друзей.-Качество видео: HDRip | Zhil.byl.kot.2016.D.BDRip.1080p.mkv
    Формат видео: AVI
    Видео: 720x400 (1.80:1), 23.976 fps, XviD build 73 ~2150 kbps avg, 0.31 bit/pixel
    Аудио: 48 kHz, AC3 Dolby Digital, 2/0 (L,R) ch, ~192 kbps-Примечание: Релиз без рекламы!
    Сэмпл: http://sendfile.su/1357582-

    MediaInfo

    Format                      : AVI
    Format/Info                 : Audio Video Interleave
    File size                   : 1.46 GiB
    Duration                    : 1 h 28 min
    Overall bit rate            : 2 352 kb/s
    Writing application         : VirtualDubMod 1.5.10.3 | www.virtualdub-fr.org || (build 2550/release)
    Writing library             : VirtualDubMod build 2550/release
    Video
    ID                          : 0
    Format                      : MPEG-4 Visual
    Format profile              : Advanced Simple@L5
    Format settings, BVOP       : 1
    Format settings, QPel       : No
    Format settings, GMC        : No warppoints
    Format settings, Matrix     : Custom
    Codec ID                    : XVID
    Codec ID/Hint               : XviD
    Duration                    : 1 h 28 min
    Bit rate                    : 2 150 kb/s
    Width                       : 720 pixels
    Height                      : 400 pixels
    Display aspect ratio        : 16:9
    Frame rate                  : 23.976 (24000/1001) FPS
    Color space                 : YUV
    Chroma subsampling          : 4:2:0
    Bit depth                   : 8 bits
    Scan type                   : Progressive
    Compression mode            : Lossy
    Bits/(Pixel*Frame)          : 0.311
    Stream size                 : 1.33 GiB (91%)
    Writing library             : XviD 73
    Audio
    ID                          : 1
    Format                      : AC-3
    Format/Info                 : Audio Coding 3
    Format settings, Endianness : Big
    Codec ID                    : 2000
    Duration                    : 1 h 28 min
    Bit rate mode               : Constant
    Bit rate                    : 192 kb/s
    Channel(s)                  : 2 channels
    Channel positions           : Front: L R
    Sampling rate               : 48.0 kHz
    Frame rate                  : 31.250 FPS (1536 spf)
    Bit depth                   : 16 bits
    Compression mode            : Lossy
    Stream size                 : 122 MiB (8%)
    Alignment                   : Split accross interleaves
    Interleave, duration        : 42  ms (1.00 video frame)
    Interleave, preload duratio : 500  ms
    Service kind                : Complete Main

    Скриншоты

  • Иностранные мультфильмы > Бэтмен: Маска Фантазма / Batman: Mask of the Phantasm (Эрик Радомски, Брюс В. Тимм / Eric Radomski, Bruce W. Timm) [1993, анимация, детектив, криминал, триллер, мелодрама, HDRip-AVC] DVO + AVO + Rus Sub [Widescreen]
  • 24-Авг-2017 18:28

    Ranku

    Бэтмен: Маска Фантазма / Batman: Mask of the Phantasm
    Год выпуска: 1993
    Страна: США
    Жанр: анимация, детектив, криминал, триллер, мелодрама
    Продолжительность: 01:13:18
    Перевод: 1) авторский одноголосный - Вартан Дохалов,
    2) двухголосный - Петр Гланц и Инна Королева (перевод текста - релиз-группа 'DisneyJazz'),
    3) авторский одноголосный - Антон Алексеев
    Русские субтитры: есть
    Режиссер: Эрик Радомски, Брюс В. Тимм
    В ролях: Кевин Конрой, Дана Дилэйни, Марк Хэмилл, Харт Бокнер, Стейси Кич, Эйб Вигода, Дик Миллер, Джон П. Райан, Ефрем Цимбалист мл., Боб Хатингс, Роберт Костанцо и другие
    Описание:
    В Готэме появляется новый борец с преступностью - Фантазм, который, в отличие от Бэтмена, попросту убивает уголовников. От его руки гибнут мафиозные боссы, являющиеся членами старой банды, орудовавшей в городе еще до появления Человека-Летучей Мыши. Главарь банды - именно он является следующей мишенью Фантазма. Идя по следу убийцы, Бэтмен приходит к выводу, что тот связан с событиями из его прошлого.-Качество: DVDRip
    Формат: .avi
    Видео кодек: XviD
    Видео: XviD, 720x416 (1.73:1), 2117 kbps, 25fps, 0.283 bit/pixel
    Аудио кодек: AC3 ACM Codec
    Аудио 1: AC3 Dolby Digital, stereo/2.0 (L,R), CBR 192 kbps, 48000Hz (русский AVO - Вартан Дохалов)
    Аудио 2: AC3 Dolby Digital, stereo/2.0 (L,R), CBR 160 kbps, 48000Hz (русский DVO - Петр Гланц и Инна Королева)
    Аудио 3: AC3 Dolby Digital, stereo/2.0 (L,R), CBR 160 kbps, 48000Hz (русский AVO - Антон Алексеев)
    Аудио 4: AC3 Dolby Digital, stereo/2.0 (L,R), CBR 192 kbps, 48000Hz (оригинальный английский)-Представляем для ознакомления:
    sample 1 - http:// СПАМ
    sample 2 - http:// СПАМ-

    Mediainfo

    GeneralComplete name                    : F:\Upload\Batman - Mask of Phantasm_DVD-Rip\Бэтмен - Маска Фантазма (Batman - Mask of the Phantasm).aviFormat                           : AVIFormat/Info                      : Audio Video InterleaveFile size                        : 1.46 GiBDuration                         : 1h 13mnOverall bit rate                 : 2 845 KbpsWriting application              : VirtualDubModRus 1.5.10.2 (build 2542/release)Writing library                  : VirtualDubMod build 2542/release
    VideoID : 0Format : MPEG-4 VisualFormat profile : Advanced Simple@L5Format settings, BVOP : YesFormat settings, QPel : NoFormat settings, GMC : No warppointsFormat settings, Matrix : Default (H.263)Codec ID : XVIDCodec ID/Hint : XviDDuration : 1h 13mnBit rate : 2 117 KbpsWidth : 720 pixelsHeight : 416 pixelsDisplay aspect ratio : 16:9Frame rate : 25.000 fpsColor space : YUVChroma subsampling : 4:2:0Bit depth : 8 bitsScan type : ProgressiveBits/(Pixel*Frame) : 0.283Stream size : 1.08 GiB (74%)Writing library : XviD 1.2.1 (UTC 2008-12-04)
    Audio #1ID : 1Format : AC-3Format/Info : Audio Coding 3Mode extension : CM (complete main)Codec ID : 2000Duration : 1h 13mnBit rate mode : ConstantBit rate : 192 KbpsChannel(s) : 2 channelsChannel positions : Front: L RSampling rate : 48.0 KHzStream size : 101 MiB (7%)Alignment : Split accross interleavesInterleave, duration : 40 ms (1.00 video frame)Interleave, preload duration : 500 ms
    Audio #2ID : 2Format : AC-3Format/Info : Audio Coding 3Mode extension : CM (complete main)Codec ID : 2000Duration : 1h 13mnBit rate mode : ConstantBit rate : 160 KbpsChannel(s) : 2 channelsChannel positions : Front: L RSampling rate : 48.0 KHzStream size : 83.9 MiB (6%)Alignment : Split accross interleavesInterleave, duration : 40 ms (1.00 video frame)Interleave, preload duration : 500 ms
    Audio #3ID : 3Format : AC-3Format/Info : Audio Coding 3Mode extension : CM (complete main)Codec ID : 2000Duration : 1h 13mnBit rate mode : ConstantBit rate : 160 KbpsChannel(s) : 2 channelsChannel positions : Front: L RSampling rate : 48.0 KHzStream size : 83.9 MiB (6%)Alignment : Split accross interleavesInterleave, duration : 40 ms (1.00 video frame)Interleave, preload duration : 500 ms
    Audio #4ID : 4Format : AC-3Format/Info : Audio Coding 3Format profile : Dolby DigitalMode extension : CM (complete main)Codec ID : 2000Duration : 1h 13mnBit rate mode : ConstantBit rate : 192 KbpsChannel(s) : 2 channelsChannel positions : Front: L RSampling rate : 48.0 KHzStream size : 101 MiB (7%)Alignment : Split accross interleavesInterleave, duration : 40 ms (1.00 video frame)Interleave, preload duration : 500 ms

    Скриншоты



    -Дополнительная информация:
    -DVD-Rip сделан из лицензированного 'DVD-5 PAL';
    -Автор DVD-rip'а - я, т.е. - Romych;
    -Не рекомендуется к просмотру лицам, не достигшим 13 лет;
    -Оригинальный саундтрек можно скачать этой раздаче (большое спасибо medvezhonokkkk);
    -Номинирован на 'Annie Awards' в 1994 году в категории "Лучший Анимационный Фильм"/"Best Animated Film";
    -Фантазм - персонаж, созданный специально для анимационного полнометражного фильма, в комиксах не встречается;
    -Полет камеры среди небоскребов при начальных титрах, сделанный на компьютере, первоначально предполагали
    использовать для мультсериала, но это не было сделано;
    -Мисс Бэмби, в адрес которой отпускает ироничный комментарий Альфред на вечеринке, упоминалась в первом эпизоде
    BTAS – "On Leather Wings", существует информация, что Бэмби озвучила Арлин Соркин (в мультсериале озвучивает персонажа Харли Куинн);
    -На экране компьютера в Бэтпещере появляются фамилии Адамс и О’Нил - это знаменитый дуэт, работавший над комиксами
    о Рыцаре Ночи в 70-х. Другая пара имен на том же экране: Пакетт и Петерсон - напоминание о Келли Пакетте и Скотте Петерсоне,
    создателях BTAS-комиксов;
    -Эйб Вигода, озвучивший Валестру, играл гангстера Сальваторе Тессио в первом “Крестном отце”;
    -1994 году была создана комикс-адаптация полнометражного анимационного фильма, но с изменениями в плане сцен драк
    и некоторых диалогов; автор Келли Пакетт, художник Майк Паробек.-Приятного Вам просмотра
  • Иностранные мультфильмы > Звёздный десант: Предатель Марса / Starship Troopers: Traitor of Mars (Синдзи Арамаки / Shinji Aramaki, Масару Мацумото / Masaru Matsumoto) [2017, Япония, США, мультфильм, фантастика, боевик, WEB-DLRip] MVO
  • 24-Авг-2017 18:27

    Ranku

    Звёздный десант: Предатель Марса / Starship Troopers: Traitor of Mars
    Страна: Япония, США
    Жанр: мультфильм, фантастика, боевик
    Год выпуска: 2017
    Продолжительность: 01:27:51
    Перевод: Профессиональный (многоголосый закадровый)
    Субтитры: нет
    Оригинальная аудиодорожка: нет-Режиссер: Синдзи Арамаки / Shinji Aramaki, Масару Мацумото / Masaru Matsumoto-В ролях: Каспер Ван Дин, Дина Мейер, ДеРэй Дэвис, Люси Кристиан, Джастин Доран-Описание: На колонизированном людьми Марсе жизнь течёт мирно и спокойно. В остальной Федерации марсиан считают недалёкими, и десантник Джон Рико уже тоже начинает сомневаться в способностях своего отряда - раз за разом команда проваливает на симуляторе миссии по уничтожению колонии жуков. И когда внезапно Марс атакуют полчища уже настоящих гигантских насекомых, отряду новичков придется доказать, что марсиане способны постоять за родную планету.-Качество видео: WEB-DLRip | Zvozdnyy.desant.Predatel.Mars.2017.P.WEBDL.1080p
    Формат видео: AVI
    Видео: 720x400 (1.80:1), 23.976 fps, XviD build 73 ~2170 kbps avg, 0.31 bit/pixel
    Аудио: 48 kHz, AC3 Dolby Digital, 2/0 (L,R) ch, ~192 kbps-Скачать сэмпл-

    MediaInfo

    Format                      : AVI
    Format/Info                 : Audio Video Interleave
    File size                   : 1.46 GiB
    Duration                    : 1 h 27 min
    Overall bit rate            : 2 372 kb/s
    Writing application         : VirtualDubMod 1.5.10.3 | www.virtualdub-fr.org || (build 2550/release)
    Writing library             : VirtualDubMod build 2550/release
    Video
    ID                          : 0
    Format                      : MPEG-4 Visual
    Format profile              : Advanced Simple@L5
    Format settings, BVOP       : 1
    Format settings, QPel       : No
    Format settings, GMC        : No warppoints
    Format settings, Matrix     : Custom
    Codec ID                    : XVID
    Codec ID/Hint               : XviD
    Duration                    : 1 h 27 min
    Bit rate                    : 2 171 kb/s
    Width                       : 720 pixels
    Height                      : 400 pixels
    Display aspect ratio        : 16:9
    Frame rate                  : 23.976 (24000/1001) FPS
    Color space                 : YUV
    Chroma subsampling          : 4:2:0
    Bit depth                   : 8 bits
    Scan type                   : Progressive
    Compression mode            : Lossy
    Bits/(Pixel*Frame)          : 0.314
    Stream size                 : 1.33 GiB (92%)
    Writing library             : XviD 73
    Audio
    ID                          : 1
    Format                      : AC-3
    Format/Info                 : Audio Coding 3
    Format settings, Endianness : Big
    Codec ID                    : 2000
    Duration                    : 1 h 27 min
    Bit rate mode               : Constant
    Bit rate                    : 192 kb/s
    Channel(s)                  : 2 channels
    Channel positions           : Front: L R
    Sampling rate               : 48.0 kHz
    Frame rate                  : 31.250 FPS (1536 spf)
    Bit depth                   : 16 bits
    Compression mode            : Lossy
    Stream size                 : 120 MiB (8%)
    Alignment                   : Split accross interleaves
    Interleave, duration        : 42  ms (1.00 video frame)
    Interleave, preload duratio : 500  ms
    Service kind                : Complete Main

    Скриншоты

  • Иностранные мультфильмы > Бэтмен: Маска Фантазма / Batman: Mask of the Phantasm (Эрик Радомски, Брюс В. Тимм / Eric Radomski, Bruce W. Timm) [1993, анимация, детектив, криминал, триллер, мелодрама, HDRip-AVC] DVO + AVO + Rus Sub [Open Matte]
  • 24-Авг-2017 18:26

    Ranku

    Бэтмен: Маска Фантазма / Batman: Mask of the Phantasm
    Год выпуска: 1993
    Страна: США
    Жанр: анимация, детектив, криминал, триллер, мелодрама
    Продолжительность: 01:16:28
    Перевод: 1) двухголосный - Петр Гланц и Инна Королева (перевод текста - релиз-группа 'DisneyJazz'),
    2) авторский одноголосный - Вартан Дохалов
    Русские субтитры: есть
    Режиссер: Эрик Радомски, Брюс В. Тимм
    В ролях: Кевин Конрой, Дана Дилэйни, Марк Хэмилл, Харт Бокнер, Стейси Кич, Эйб Вигода, Дик Миллер, Джон П. Райан, Ефрем Цимбалист мл., Боб Хатингс, Роберт Костанцо и другие
    Описание:
    В Готэме появляется новый борец с преступностью - Фантазм, который, в отличие от Бэтмена, попросту убивает уголовников. От его руки гибнут мафиозные боссы, являющиеся членами старой банды, орудовавшей в городе еще до появления Человека-Летучей Мыши. Главарь банды - именно он является следующей мишенью Фантазма. Идя по следу убийцы, Бэтмен приходит к выводу, что тот связан с событиями из его прошлого.-Качество: HDRip-AVC
    Формат: .mkv
    Видео кодек: x264
    Видео: x264, 960x704 (4:3), 3600 kbps, 23,976fps, 0.222 bit/pixel
    Аудио кодек: AC3 ACM Codec
    Аудио 1: AC3 Dolby Digital, stereo/2.0 (L,R), CBR 192 kbps, 48000Hz (русский DVO - Петр Гланц и Инна Королева)
    Аудио 2: AC3 Dolby Digital, stereo/2.0 (L,R), CBR 192 kbps, 48000Hz (русский AVO - Вартан Дохалов)
    Аудио 3: AC3 Dolby Digital, stereo/2.0 (L,R), CBR 192 kbps, 48000Hz (оригинальный английский)-Представляем для ознакомления:
    sample 1 - http://yadi.sk/i/ZFYlLvNz3MGf5J
    sample 2 - http://yadi.sk/i/e_M8q89w3MGf5M-

    Mediainfo

    GeneralUnique ID                      : 224418065786851596991702805017503861573 (0xA8D558E8649D91118C5BE14CA24A0B45)Complete name                  : F:\Upload\Batman - Mask of the Phantasm (Open Matte)_ripped by Romych\Batman - Mask of the Phantasm (Open Matte).mkvFormat                         : MatroskaFormat version                 : Version 2File size                      : 2.23 GiBDuration                       : 1 h 16 minOverall bit rate               : 4 178 kb/sEncoded date                   : UTC 2017-08-22 09:39:42Writing application            : mkvmerge v2.9.7 ('Tenderness') built on Jul  1 2009 18:43:35Writing library                : libebml v0.7.7 + libmatroska v0.8.1
    VideoID : 1Format : AVCFormat/Info : Advanced Video CodecFormat profile : High@L4.1Format settings, CABAC : YesFormat settings, ReFrames : 4 framesCodec ID : V_MPEG4/ISO/AVCDuration : 1 h 16 minBit rate : 3 600 kb/sWidth : 960 pixelsHeight : 704 pixelsDisplay aspect ratio : 4:3Frame rate mode : ConstantFrame rate : 23.976 (24000/1001) FPSColor space : YUVChroma subsampling : 4:2:0Bit depth : 8 bitsScan type : ProgressiveBits/(Pixel*Frame) : 0.222Stream size : 1.88 GiB (84%)Title : 'Batman: Mask of the Phantasm' (Open Matte)_ripped by RomychWriting library : x264 core 152 r2851 ba24899Encoding settings : cabac=1 / ref=4 / deblock=1:1:1 / analyse=0x3:0x113 / me=umh / subme=6 / psy=1 / psy_rd=0.60:0.00 / mixed_ref=1 / me_range=16 / chroma_me=1 / trellis=1 / 8x8dct=1 / cqm=0 / deadzone=21,11 / fast_pskip=1 / chroma_qp_offset=-2 / threads=6 / lookahead_threads=1 / sliced_threads=0 / nr=0 / decimate=1 / interlaced=0 / bluray_compat=0 / constrained_intra=0 / bframes=3 / b_pyramid=2 / b_adapt=2 / b_bias=0 / direct=3 / weightb=0 / open_gop=0 / weightp=2 / keyint=240 / keyint_min=23 / scenecut=40 / intra_refresh=0 / rc_lookahead=40 / rc=2pass / mbtree=0 / bitrate=3600 / ratetol=1.0 / qcomp=0.60 / qpmin=10 / qpmax=51 / qpstep=4 / cplxblur=20.0 / qblur=0.5 / vbv_maxrate=50000 / vbv_bufsize=50000 / nal_hrd=none / filler=0 / ip_ratio=1.40 / pb_ratio=1.30 / aq=0Language : EnglishDefault : YesForced : No
    Audio #1ID : 2Format : AC-3Format/Info : Audio Coding 3Format profile : Dolby DigitalMode extension : CM (complete main)Format settings, Endianness : BigCodec ID : A_AC3Duration : 1 h 16 minBit rate mode : ConstantBit rate : 192 kb/sChannel(s) : 2 channelsChannel positions : Front: L RSampling rate : 48.0 kHzFrame rate : 31.250 FPS (1536 spf)Bit depth : 16 bitsCompression mode : LossyStream size : 105 MiB (5%)Title : DVO Glanz & Koroleva (translated by 'DisneyJazz')Language : RussianDefault : YesForced : No
    Audio #2ID : 3Format : AC-3Format/Info : Audio Coding 3Format profile : Dolby DigitalMode extension : CM (complete main)Format settings, Endianness : BigCodec ID : A_AC3Duration : 1 h 16 minBit rate mode : ConstantBit rate : 192 kb/sChannel(s) : 2 channelsChannel positions : Front: L RSampling rate : 48.0 kHzFrame rate : 31.250 FPS (1536 spf)Bit depth : 16 bitsCompression mode : LossyStream size : 105 MiB (5%)Title : AVO DohalovLanguage : RussianDefault : NoForced : No
    Audio #3ID : 4Format : AC-3Format/Info : Audio Coding 3Format profile : Dolby DigitalMode extension : CM (complete main)Format settings, Endianness : BigCodec ID : A_AC3Duration : 1 h 16 minBit rate mode : ConstantBit rate : 192 kb/sChannel(s) : 2 channelsChannel positions : Front: L RSampling rate : 48.0 kHzFrame rate : 31.250 FPS (1536 spf)Bit depth : 16 bitsCompression mode : LossyStream size : 105 MiB (5%)Title : OriginalLanguage : EnglishDefault : NoForced : No
    Text #1ID : 5Format : UTF-8Codec ID : S_TEXT/UTF8Codec ID/Info : UTF-8 Plain TextLanguage : RussianDefault : NoForced : No
    Text #2ID : 6Format : UTF-8Codec ID : S_TEXT/UTF8Codec ID/Info : UTF-8 Plain TextLanguage : EnglishDefault : NoForced : No
    Menu00:00:00.000 : :00:00:00.00000:01:47.107 : :00:01:47.10700:05:00.217 : :00:05:00.21700:06:31.850 : :00:06:31.85000:08:01.648 : :00:08:01.64800:10:24.082 : :00:10:24.08200:15:42.984 : :00:15:42.98400:21:32.917 : :00:21:32.91700:24:36.016 : :00:24:36.01600:26:04.605 : :00:26:04.60500:28:19.823 : :00:28:19.82300:30:35.542 : :00:30:35.54200:31:37.521 : :00:31:37.52100:34:05.877 : :00:34:05.87700:36:25.517 : :00:36:25.51700:40:15.538 : :00:40:15.53800:41:56.514 : :00:41:56.51400:43:53.506 : :00:43:53.50600:47:10.161 : :00:47:10.16100:51:39.471 : :00:51:39.47100:52:35.736 : :00:52:35.73600:55:17.481 : :00:55:17.48100:57:31.448 : :00:57:31.44800:58:55.365 : :00:58:55.36500:59:38.241 : :00:59:38.24101:04:04.174 : :01:04:04.17401:06:36.576 : :01:06:36.57601:08:00.743 : :01:08:00.74301:09:58.194 : :01:09:58.19401:12:20.336 : :01:12:20.336
    -

    Скриншот с названием

    Скриншоты


    -Дополнительная информация:
    - HD-Rip сделан из "Batman.Mask.of.the.Phantasm.1993.OPEN.MATTE.1080p.BluRay.x264-PSYCHD";
    - Не рекомендуется к просмотру лицам, не достигшим 13 лет;
    - Оригинальный саундтрек можно скачать: MP3 320 kbps (большое спасибо medvezhonokkkk) ; FLAC (tracks+.cue), lossless (большое спасибо igoriek)
    - Номинирован на 'Annie Awards' в 1994 году в категории "Лучший Анимационный Фильм"/"Best Animated Film";
    - Фантазм - персонаж, созданный специально для анимационного полнометражного фильма, в комиксах не встречается;
    - Полет камеры среди небоскребов при начальных титрах, сделанный на компьютере,
    первоначально предполагали использовать для мультсериала, но это не было сделано;
    - Мисс Бэмби, в адрес которой отпускает ироничный комментарий Альфред на вечеринке, упоминалась в первом эпизоде BTAS – "On Leather Wings",
    существует информация, что Бэмби озвучила Арлин Соркин (в мультсериале озвучивает персонажа Харли Куинн);
    - На экране компьютера в Бэтпещере появляются фамилии Адамс и О’Нил - это знаменитый дуэт, работавший над комиксами
    о Рыцаре Ночи в 70-х. Другая пара имен на том же экране: Пакетт и Петерсон - напоминание о Келли Пакетте и Скотте Петерсоне,
    создателях BTAS-комиксов;
    - Эйб Вигода, озвучивший Валестру, играл гангстера Сальваторе Тессио в первом “Крестном отце”;
    - 1994 году была создана комикс-адаптация полнометражного анимационного фильма, но с изменениями в плане сцен драк
    и некоторых диалогов; автор Келли Пакетт, художник Майк Паробек.-Приятного Вам просмотра =]-! ВНИМАНИЕ !
    Торрент-файл перезалит 24.08.2017 по причине:
    - полностью переделана раздача в связи с выходом куда более качественного исходника.
  • Иностранные мультфильмы > Бэтмен и Харли Квинн / Batman and Harley Quinn (Сэм Лью) [2017, США, фантастика, фэнтези, боевик, комедия, приключения, WEB-DLRip] MVO
  • 21-Авг-2017 08:01

    Ranku

    Бэтмен и Харли Квинн / Batman and Harley Quinn
    Страна: США
    Жанр: фантастика, фэнтези, боевик, комедия, приключения
    Продолжительность: 01:14:16
    Год выпуска: 2017
    Перевод: Любительский (многоголосый закадровый)
    Русские субтитры: нет
    Режиссёр: Сэм Лью
    Роли озвучивали: Пэйджет Брюстер, Джон Димаджио, Кевин Конрой, Кевин Майкл Ричардсон, Минди Стерлинг
    Описание: В фильме рассказывается история о странных взаимоотношениях между Бэтменом и бывшей подружкой Джокера Харли Квинна. Злодейка влюбляется в Бэтмена, но свою любовь девушка проявляет странным образом. В то время как супер-герой помогает людям, спасая их жизни, Харли всячески ему мешает, постоянно создавая трудности. Бэтмен постоянно злится и отвечает резкими нападками против злодейки, но ничего не может поделать. В конце концов, Харли удается схватить и отправить на лечение в психбольницу для особо тяжелых клиентов, заодно немного успокоится.
    Вскоре Харли вырывается на свободу совсем иным человеком. Девушка становится на сторону добра и выявляет желание помогать Бэтмену, которому сейчас просто необходима помощь, так как предстоит остановить надвигающуюся катастрофу, которую создали Доктор Джейсон Вудроу и Ядовитый Плющ. Угроза состоит в превращении людей в растения. Этого нельзя допустить, поэтому герои сплотятся, и будут бороться против заклятых врагов, чтобы освободить человечество от смертельной опасности.
    Доп. информация: Релиз от ZM-SHOW
    Семпл: http://multi-up.com/1165400
    Качество: WEB-DLRip
    Формат: AVI
    Видео: XviD, 720x400, 23,976 fps, 1899 kb/s
    Аудио: Русский: AC-3, 48,0 KHz, 2 ch, 192 kbps
    Аудио 2: English: AC-3, 48,0 Hz, 6 ch, 384 kbps
    Субтитры: отсутствуют

    Подробные технические данные

    Общее
    Полное имя : E:\Мультфильмы\Бэтмен и Харли Квинн.avi
    Формат : AVI
    Формат/Информация : Audio Video Interleave
    Размер файла : 1,29 Гбайт
    Продолжительность : 1 ч. 14 м.
    Общий поток : 2489 Кбит/сек
    Программа кодирования : VirtualDubMod 1.5.10.2 (build 2540/release)
    Библиотека кодирования : VirtualDubMod build 2540/release
    Видео
    Идентификатор : 0
    Формат : MPEG-4 Visual
    Профиль формата : Advanced Simple@L5
    Параметр BVOP формата : 2
    Параметр QPel формата : Нет
    Параметр GMC формата : Без точки перехода
    Параметр матрицы формата : Default (H.263)
    Режим смешивания : Сжатый битовый поток
    Идентификатор кодека : XVID
    Идентификатор кодека/Подсказка : XviD
    Продолжительность : 1 ч. 14 м.
    Битрейт : 1899 Кбит/сек
    Ширина : 720 пикселей
    Высота : 400 пикселей
    Соотношение сторон : 16:9
    Частота кадров : 23,976 (24000/1001) кадра/сек
    Цветовое пространство : YUV
    Субдискретизация насыщенности : 4:2:0
    Битовая глубина : 8 бит
    Тип развёртки : Прогрессивная
    Метод сжатия : С потерями
    Бит/(Пиксели*Кадры) : 0.275
    Размер потока : 1009 Мбайт (76%)
    Библиотека кодирования : XviD 66
    Аудио #1
    Идентификатор : 1
    Формат : AC-3
    Формат/Информация : Audio Coding 3
    Параметр Endianness формата : Big
    Идентификатор кодека : 2000
    Продолжительность : 1 ч. 14 м.
    Вид битрейта : Постоянный
    Битрейт : 192 Кбит/сек
    Каналы : 2 канала
    Расположение каналов : Front: L R
    Частота : 48,0 КГц
    Частота кадров : 31,250 кадров/сек (1536 SPF)
    Битовая глубина : 16 бит
    Метод сжатия : С потерями
    Размер потока : 102 Мбайт (8%)
    Выравнивание : Разделение по промежуткам
    Продолжительность промежутка : 42 мс. (1,00 видеокадр)
    Время предзагрузки промежутка : 500 мс.
    ServiceKind/String : Complete Main
    Аудио #2
    Идентификатор : 2
    Формат : AC-3
    Формат/Информация : Audio Coding 3
    Параметр Endianness формата : Big
    Идентификатор кодека : 2000
    Продолжительность : 1 ч. 14 м.
    Вид битрейта : Постоянный
    Битрейт : 384 Кбит/сек
    Каналы : 6 каналов
    Расположение каналов : Front: L C R, Side: L R, LFE
    Частота : 48,0 КГц
    Частота кадров : 31,250 кадров/сек (1536 SPF)
    Битовая глубина : 16 бит
    Метод сжатия : С потерями
    Размер потока : 204 Мбайт (15%)
    Выравнивание : Соединение по промежуткам
    Продолжительность промежутка : 42 мс. (1,00 видеокадр)
    Время предзагрузки промежутка : 512 мс.

    Скриншоты

  • Иностранные мультфильмы > Бэтмэн: Под маской призрака / Batman: Mask of the Phantasm (Брюс В. Тимм, Брэндон Виетти) [1993, Полнометражный мультфильм, экшн, комикс, драма, DVDRip] DVO Glanz
  • 18-Авг-2017 21:20

    Ranku

    Бэтмэн: Под маской призрака / Batman: Mask of the Phantasm- Оригинальное название: Batman: Mask of the Phantasm
    Русское название: Бэтмэн: Под маской призрака
    Год выпуска: 1993
    Страна: США
    Жанр: Полнометражный мультфильм, экшн, комикс, драма
    Продолжительность: 01:16:56
    Перевод: Профессиональный (DisneyJazz feat. Гланц и Инна Королёва)
    Режиссер: Брюс Тимм
    Роли озвучивали: Кевин Сонрой, Дэна Дилэйни, Харт Бочнер, Стэйси Кич и другие.
    Описание: В Готэме появляется новый борец с преступностью - Фантазм, который, в отличие от Бэтмена, попросту убивает уголовников. От его руки гибнут мафиозные боссы Чаки Сол и Базз Бронски – члены старой банды, орудовавшей в городе еще до появления Человека - Летучей Мыши. Главарем банды был Сальваторе Валестра – именно он является следующей мишенью Фантазма. Идя по следу убийцы, Бэтмен приходит к выводу, что тот связан с событиями из его прошлого.-Релиз от: -Выражаем благодарность:
    maxdie - коддинг DVD диска, микс овервойса.
    Xeno - первоначальный перевод.
    the_Pixel, GoldSword - редактирование перевода.
    Пётр Гланц и Инна Королёва - за озвучивание материала.
    SerGoLeOne - за помощь в раздаче по [Torrent]-Качество: DVDRip
    Формат: AVI
    Видео кодек: XviD
    Аудио кодек:
    Видео: XviD 640x352 23.98fps 998Kbps
    Аудио: MPEG Audio Layer 3 48000Hz stereo 128Kbps
    Скриншоты: